<?xml version="1.0" standalone="no"?>
<!DOCTYPE svg PUBLIC "-//W3C//DTD SVG 1.1//EN" "http://www.w3.org/Graphics/SVG/1.1/DTD/svg11.dtd" >
<svg xmlns="http://www.w3.org/2000/svg">
  <metadata>Created by iconfont</metadata>
  <defs>
  <font id="iconfont" horiz-adv-x="1024">
    <font-face
      font-family="iconfont"
      font-weight="400"
      font-stretch="normal"
      units-per-em="1024"
      ascent="896"
      descent="-128"
    />
      <missing-glyph />
      
      <glyph glyph-name="chakanmingxi" unicode="&#59006;" d="M834 610H210c-16.6 0-30 13.4-30 30s13.4 30 30 30h624c16.6 0 30-13.4 30-30s-13.4-30-30-30z m0-176H210c-16.6 0-30 13.4-30 30s13.4 30 30 30h624c16.6 0 30-13.4 30-30s-13.4-30-30-30zM411 258H210c-16.6 0-30 13.4-30 30s13.4 30 30 30h201c16.6 0 30-13.4 30-30s-13.4-30-30-30z m-36-176H210c-16.6 0-30 13.4-30 30s13.4 30 30 30h165c16.6 0 30-13.4 30-30s-13.4-30-30-30z m437.8-50.2l-80.3 80.3c-11.7 11.7-11.7 30.7 0 42.4s30.7 11.7 42.4 0l80.3-80.3c11.7-11.7 11.7-30.7 0-42.4-11.7-11.8-30.7-11.8-42.4 0zM652.5 325c48.8 0 88.5-39.7 88.5-88.5S701.3 148 652.5 148 564 187.7 564 236.5s39.7 88.5 88.5 88.5m0 60c-82 0-148.5-66.5-148.5-148.5S570.5 88 652.5 88 801 154.5 801 236.5 734.5 385 652.5 385z"  horiz-adv-x="1024" />
      
      <glyph glyph-name="daijinquan" unicode="&#58942;" d="M1007.548129 443.459535l-386.55698-386.492981-19.775846-19.903845-148.670839-148.670839c-21.887829-21.887829-57.407552-21.82383-79.295381 0l-39.615691 39.67969-39.615691 39.67969-39.67969 39.615691c32.831744 32.831744 32.831744 86.143327 0 118.975071-32.831744 32.831744-86.079328 32.831744-118.911071 0l-39.67969 39.615691-39.615691 39.67969-39.615691 39.67969c-21.951829 21.887829-21.887829 57.343552 0 79.231381L165.12271 473.219303l19.775846 19.903845L571.519535 879.552128c21.887829 21.887829 57.343552 21.887829 79.231381 0l59.455536-59.455536 19.839845-19.775846 39.615691-39.67969c-32.831744-32.831744-32.831744-86.079328 0-118.911071 32.831744-32.831744 86.143327-32.831744 118.975071 0l39.615691-39.67969 59.455536-59.455536 19.839845-19.775846C1029.435958 500.931086 1029.499957 465.347364 1007.548129 443.459535L1007.548129 443.459535 1007.548129 443.459535zM880.253123 570.754541c-50.303607-19.647847-109.567144-9.279928-150.206827 31.295756-40.703682 40.639683-51.007602 99.967219-31.359755 150.270826L630.975071 820.096593c-10.943915 10.943915-28.735776 10.943915-39.67969 0L234.498168 463.29938l29.759768-29.759768c5.439958-5.439958 5.503957-14.335888 0-19.839845L244.354091 393.923922c-5.503957-5.503957-14.335888-5.503957-19.775846 0L194.818478 423.68369 75.907407 304.708619c-10.943915-10.943915-10.943915-28.735776 0-39.67969l67.775471-67.775471c50.303607 19.647847 109.567144 9.343927 150.270826-31.359755 40.575683-40.575683 50.943602-99.90322 31.231756-150.206827l67.83947-67.90347c10.879915-10.879915 28.671776-10.943915 39.615691 0l118.911071 118.975071-29.759768 29.759768c-5.503957 5.503957-5.503957 14.335888 0 19.839845l19.903845 19.775846c5.503957 5.503957 14.335888 5.503957 19.775846 0l29.759768-29.695768 356.797213 356.797213c10.943915 11.007914 10.879915 28.735776 0 39.615691L880.253123 570.754541 880.253123 570.754541 880.253123 570.754541zM502.080077 175.877626l-19.839845-19.839845c-5.503957-5.503957-14.335888-5.439958-19.839845 0l-59.455536 59.455536c-5.503957 5.503957-5.503957 14.335888 0 19.839845l19.839845 19.775846c5.503957 5.503957 14.335888 5.503957 19.839845 0l59.455536-59.455536C507.584034 190.213514 507.584034 181.381583 502.080077 175.877626L502.080077 175.877626 502.080077 175.877626zM383.169006 294.788697l-19.839845-19.775846c-5.503957-5.503957-14.335888-5.503957-19.839845 0L284.033781 334.468387c-5.503957 5.503957-5.503957 14.335888 0 19.775846l19.839845 19.839845c5.503957 5.503957 14.335888 5.503957 19.839845 0l59.455536-59.455536C388.608964 309.188584 388.672963 300.292654 383.169006 294.788697L383.169006 294.788697 383.169006 294.788697z"  horiz-adv-x="1024" />
      
      <glyph glyph-name="yiwen" unicode="&#58880;" d="M511.998 812.004C229.228 812.004 0 582.772 0 300.002c0-282.772 229.228-512.006 511.998-512.006C794.772-212.004 1024 17.23 1024 300 1024 582.77 794.774 812.004 511.998 812.004zM561.686 4.556c0-14.138-11.458-25.602-25.6-25.602l-76.8 0c-14.136 0-25.598 11.462-25.598 25.602l0 76.798c0 14.142 11.462 25.604 25.598 25.604l76.8 0c14.14 0 25.6-11.46 25.6-25.604L561.686 4.556zM688.588 356.94c-10.29-14.672-33.646-33.368-62.886-56.162l-32.404-22.362c-15.738-12.208-29.696-26.42-34.858-42.692-1.764-5.544-3.086-14.656-3.976-24.496-0.448-4.952-4.878-15.054-15.232-15.054-25.37 0-73.72 0-83.34 0-13.546 0-15.966 10.61-15.74 15.8 1.5 34.016 4.616 64.216 18.476 80.474 28.06 32.9 91.908 73.852 91.908 73.852 9.72 7.336 17.59 15.31 23.542 24 10.82 14.92 19.796 31.304 19.796 49.214 0 20.584-6.018 39.348-18.094 56.332-12.034 16.916-34.078 25.392-66.02 25.392-31.444 0-53.734-10.436-66.874-31.3-9.706-15.416-15.818-29.588-18.348-45.01-0.9-5.458-4.4-16.954-16.066-16.954-24.65 0-70.094 0-81.282 0-17.308 0-21.118 11.216-20.618 16.622 6.266 68.138 32.892 114.692 79.972 144.586 32.014 20.582 71.4 30.91 118.12 30.91 61.39 0 112.35-14.634 152.978-43.944 40.556-29.27 60.892-72.642 60.892-130.15C718.538 410.78 706.178 381.082 688.588 356.94z"  horiz-adv-x="1024" />
      
      <glyph glyph-name="tuandui" unicode="&#58884;" d="M629.956 409.481c44.718 34.903 73.61 88.978 73.61 149.734 0 105.01-85.99 190.453-191.72 190.453s-191.72-85.444-191.72-190.453c0-60.756 28.886-114.83 73.609-149.734-117.862-46.786-201.415-161.14-201.415-294.66v-63.467c0-17.554 14.295-31.75 31.943-31.75h575.16c17.653 0 31.944 14.196 31.944 31.75V114.82c0.001 133.572-83.552 247.876-201.411 294.661zM373.152 559.466c0 75.995 62.198 137.774 138.694 137.774 76.492 0 138.693-61.78 138.693-137.774 0-75.976-62.2-137.774-138.693-137.774-76.496 0-138.694 61.773-138.694 137.774z m410.165-487.78h-542.97v33.713c0 148.708 121.79 269.705 271.523 269.705 149.68 0 271.447-120.997 271.447-269.705v-33.713zM264.212 380.05l6.24 1.489c13.4 4.453 22.945 16.136 22.945 29.858 0 13.253-8.924 24.586-21.575 29.36-34.212 15.44-56.284 49.323-56.284 86.663 0 42.311 36.768 77.958 75.251 90.315 6.737 20.659 16.928 39.777 29.904 56.681a214.079 214.079 0 0 0 7.137 10.963c-2.584 0.124-5.045 0.768-7.703 0.768-88.083 0-159.775-71.196-159.775-158.728 0-40.175 15.41-77.838 41.564-106.478C118.734 378.134 64.49 292.518 64.49 195.661v-49.096c0-17.553 14.296-31.745 31.944-31.745h57.25c0 21.75 2.24 35.695 6.44 56.208h-40.446V195.66c0 87.736 59.365 163.034 144.535 184.39z m557.213 40.892c26.155 28.64 41.565 66.303 41.565 106.478 0 87.533-71.67 158.756-159.776 158.756-2.66 0-5.12-0.649-7.704-0.771a213.392 213.392 0 0 0 7.137-10.963c12.978-16.904 23.167-36.022 29.881-56.683 38.484-12.352 80.57-48.004 80.57-90.314 0-37.341-22.101-71.248-56.284-86.664-12.655-4.77-21.58-16.107-21.58-29.36 0-13.723 9.574-25.406 22.946-29.853l6.24-1.493c85.199-21.38 144.536-96.655 144.536-184.413v-24.632h-45.79c4.225-20.514 6.44-34.458 6.44-56.209h57.25c17.677 0 31.945 14.192 31.945 31.745v49.096c0.052 96.856-54.193 182.472-137.376 225.28z m0 0"  horiz-adv-x="1024" />
      
      <glyph glyph-name="icon_show" unicode="&#59203;" d="M544.085333 746.632533a32.017067 32.017067 0 1 1-63.965866 0v-97.211733a435.8144 435.8144 0 0 1-130.935467-31.266133l-40.277333 56.1152a32.017067 32.017067 0 0 1-51.950934-37.2736l33.9968-47.445334c-25.941333-15.018667-49.834667-32.085333-71.2704-50.517333-73.045333-62.532267-123.6992-145.271467-123.6992-218.999467s50.722133-156.535467 123.6992-219.067733c74.205867-63.556267 177.3568-111.616 292.317867-111.616 114.961067 0 218.112 47.991467 292.317867 111.616 73.045333 62.464 123.6992 145.271467 123.6992 219.067733 0 73.728-50.653867 156.535467-123.6992 218.999467a477.184 477.184 0 0 1-53.316267 39.594667l35.0208 48.878933a32.017067 32.017067 0 1 1-52.0192 37.341867l-39.594667-55.227734a439.7056 439.7056 0 0 1-150.254933 39.799467V746.7008zM261.393067 490.496c64.7168 55.432533 153.6 96.256 250.6752 96.256 97.143467 0 185.9584-40.7552 250.6752-96.256 66.013867-56.5248 101.307733-123.0848 101.307733-170.461867 0-47.3088-35.293867-113.8688-101.307733-170.3936-64.7168-55.5008-153.6-96.256-250.6752-96.256-97.143467 0-185.9584 40.823467-250.6752 96.256-66.013867 56.593067-101.307733 123.153067-101.307734 170.3936 0 47.3088 35.293867 113.8688 101.307734 170.461867z m90.658133-170.461867a160.017067 160.017067 0 1 0 320.034133 0 160.017067 160.017067 0 0 0-320.034133 0zM512 416.085333a95.982933 95.982933 0 1 1 0-192.034133 95.982933 95.982933 0 0 1 0 192.034133z"  horiz-adv-x="1024" />
      
      <glyph glyph-name="icon_people" unicode="&#59202;" d="M330.683733 618.632533a181.316267 181.316267 0 1 0 362.632534 0 181.316267 181.316267 0 0 0-362.632534 0zM512 736.0512a117.3504 117.3504 0 1 1 0-234.7008 117.3504 117.3504 0 0 1 0 234.632533zM399.633067 330.683733h224.733866c46.557867 0 83.490133 0 113.322667-2.4576 30.378667-2.4576 56.1152-7.645867 79.6672-19.6608a202.683733 202.683733 0 0 0 88.541867-88.541866c12.014933-23.552 17.2032-49.288533 19.6608-79.735467 2.4576-29.764267 2.4576-66.696533 2.4576-113.322667v-26.965333c0-17.681067-14.336-32.017067-32.017067-32.017067H128a32.017067 32.017067 0 0 0-32.017067 32.017067v27.0336c0 46.557867 0 83.490133 2.4576 113.322667 2.4576 30.378667 7.645867 56.1152 19.6608 79.6672a202.683733 202.683733 0 0 0 88.541867 88.541866c23.552 12.014933 49.288533 17.2032 79.735467 19.6608 29.764267 2.4576 66.696533 2.4576 113.322666 2.4576z m-163.908267-79.189333a138.6496 138.6496 0 0 1-60.6208-60.552533c-6.621867-12.970667-10.717867-29.354667-12.9024-55.842134-2.048-25.668267-2.184533-58.094933-2.184533-103.082666h703.965866c0 44.987733-0.136533 77.4144-2.184533 103.082666-2.184533 26.487467-6.280533 42.871467-12.970667 55.842134a138.717867 138.717867 0 0 1-60.552533 60.6208m-552.5504 0c12.970667 6.621867 29.354667 10.717867 55.842133 12.9024 26.897067 2.184533 61.166933 2.184533 109.499734 2.184533h221.866666c48.3328 0 82.602667 0 109.499734-2.184533 26.487467-2.184533 42.871467-6.280533 55.842133-12.970667"  horiz-adv-x="1024" />
      
      <glyph glyph-name="icon_password" unicode="&#59198;" d="M512 778.6496a181.316267 181.316267 0 0 0 181.316267-181.316267v-138.6496H330.683733V597.333333A181.316267 181.316267 0 0 0 512 778.6496zM266.6496 597.333333v-138.6496H170.666667c-41.233067 0-74.683733-33.450667-74.683734-74.683733v-384c0-41.233067 33.450667-74.683733 74.683734-74.683733h682.666666c41.233067 0 74.683733 33.450667 74.683734 74.683733V384c0 41.233067-33.450667 74.683733-74.683734 74.683733h-95.982933V597.333333a245.3504 245.3504 0 0 1-490.7008 0zM170.666667 394.6496h682.666666c5.870933 0 10.6496-4.778667 10.6496-10.6496v-384c0-5.870933-4.778667-10.6496-10.6496-10.6496h-682.666666a10.6496 10.6496 0 0 0-10.6496 10.6496V384c0 5.870933 4.778667 10.6496 10.6496 10.6496z m373.3504-138.6496a32.017067 32.017067 0 0 1-64.034134 0v-128a32.017067 32.017067 0 1 1 64.034134 0V256z"  horiz-adv-x="1024" />
      
      <glyph glyph-name="icon_hidden" unicode="&#59200;" d="M900.3008 516.3008c-12.765867 8.533333-34.133333 8.533333-42.666667-8.533333-136.533333-187.733333-396.765867-226.167467-584.4992-93.866667-42.666667 29.832533-76.8 63.965867-102.4 106.632533a33.109333 33.109333 0 0 1-42.666666 8.533334A33.109333 33.109333 0 0 1 119.466667 486.4c29.832533-46.8992 72.4992-85.333333 115.165866-119.466667 17.066667-12.765867 38.434133-25.6 55.5008-34.133333L209.1008 251.767467a33.450667 33.450667 0 0 1 0-46.967467 32.5632 32.5632 0 0 1 21.367467-8.533333c8.533333 0 17.066667 4.3008 21.2992 8.533333L345.634133 298.666667l4.3008 4.3008A464.213333 464.213333 0 0 1 477.866667 273.066667v-119.466667c0-17.066667 12.765867-34.133333 34.133333-34.133333 21.2992 0 34.133333 12.834133 34.133333 34.133333V277.367467a996.5568 996.5568 0 0 1 110.933334 17.066666s0-4.3008 4.232533-4.3008l93.866667-93.866666a32.5632 32.5632 0 0 1 21.367466-8.533334c8.533333 0 17.066667 4.3008 21.2992 8.533334a33.450667 33.450667 0 0 1 0 46.967466l-76.8 76.8c72.567467 34.133333 136.533333 85.333333 187.733334 153.6 8.533333 12.765867 4.3008 29.832533-8.533334 42.666667z"  horiz-adv-x="1024" />
      
      <glyph glyph-name="icon_code" unicode="&#59201;" d="M521.147733 841.386667a32.017067 32.017067 0 0 1-17.954133 0L119.057067 729.2928a32.017067 32.017067 0 0 1-23.074134-30.72V468.650667a593.5104 593.5104 0 0 1 405.981867-563.063467 32.085333 32.085333 0 0 1 20.206933 0 593.442133 593.442133 0 0 1 405.845334 562.926933V698.5728a32.017067 32.017067 0 0 1-23.074134 30.72L521.147733 841.386667zM160.017067 468.650667V674.542933l352.187733 102.8096 351.778133-102.8096V468.650667c0-224.324267-141.312-423.867733-351.914666-498.756267a529.544533 529.544533 0 0 0-352.0512 498.8928z m587.9808 20.6848a32.017067 32.017067 0 0 1-45.329067 45.192533L469.333333 301.2608 342.6304 427.963733a32.017067 32.017067 0 0 1-45.2608-45.2608l149.367467-149.2992c12.4928-12.561067 32.768-12.561067 45.192533 0l256 256z"  horiz-adv-x="1024" />
      
      <glyph glyph-name="dakaiwenjianjia" unicode="&#59085;" d="M905.562 44.813L0-46.927v825.66h833.9c39.088 0 65.147-41.7 65.147-91.74l6.515-642.18v-100.08 100.08z m-338.771 733.92C566.79 843.88 514.672 896 456.039 896H0v-117.267h566.79zM136.812 159.239v496h697.087v-496zM951.166 498.586H201.96c-32.574 0-65.148-21.837-71.663-58.232L0-47.344c0-43.675 32.574-80.07 71.663-80.07h729.662c71.663 0 130.297 58.233 149.841 131.023L1022.83 389.4c6.515 43.674-19.544 87.349-58.633 101.907-6.515 7.28-6.515 7.28-13.03 7.28z"  horiz-adv-x="1024" />
      
      <glyph glyph-name="wancheng" unicode="&#59199;" d="M348.714 384a512 512 0 1 1 1024 0 512 512 0 1 1-1024 0zM817.738 151.04700000000003L594.48 381.68499999999995l57.244 46.655 129.134-102.845c52.913 63.903 170.392 190.71 332.452 291.458l13.65-31.95C978.181 446.194 856.44 250.93399999999997 817.737 151.04600000000005z m0 0"  horiz-adv-x="1713" />
      
      <glyph glyph-name="wenjianjia" unicode="&#59065;" d="M1024 156.255H0V768.379h946.441c42.003 0 75.947-33.943 75.947-75.946L1024 156.255zM639.62 768.379C639.62 839.49 583.112 896 512 896H0v-127.62h639.62M129.233 327.49V710.258h767.146V327.49H129.233zM1024-33.849000000000046V558.364c0 42.288-29.108 76.895-64.569 76.895H64.57C29.109 635.26 0 600.652 0 558.364v-592.118C0-85.61800000000005 35.556-128 79.17-128h864.143c45.131 0 80.687 42.287 80.687 94.151z"  horiz-adv-x="1024" />
      
      <glyph glyph-name="jifen" unicode="&#59197;" d="M874.032 746.056c-199.93 199.93-524.114 199.93-724.076-0.032s-199.93-524.082 0.032-724.012c199.962-199.963 524.114-199.963 724.044-0.064s199.963 524.146 0 724.108z m-245.721-490.13c-51.935-51.935-93.086-106.206-119.709-154.748-26.623 48.542-67.774 102.813-119.709 154.748S282.688 349.01 234.146 375.634c48.542 26.624 102.813 67.774 154.747 119.709s93.086 106.205 119.71 154.748c26.622-48.543 67.773-102.813 119.708-154.748s106.205-93.085 154.748-119.709c-48.511-26.623-102.814-67.806-154.748-119.708z"  horiz-adv-x="1025" />
      
      <glyph glyph-name="daifahuo" unicode="&#59110;" d="M805.357 698.975H219.401c-41.908 0-75.851-32.616-75.851-72.818v-481.185c0-40.202 33.943-72.818 75.851-72.818h585.956c41.908 0 75.852 32.616 75.852 72.818v80.782c-0.095 10.525-9.008 19.058-20.006 19.058-10.999 0-19.911-8.533-20.006-19.058v-76.895c0-21.143-17.92-38.305-39.917-38.305H223.479c-21.998 0-39.918 17.162-39.918 38.305V447.81l228.599-0.284v-165.357c0-11.093 9.387-20.196 21.049-20.196 3.603 0 6.921 1.138 9.86 2.655l0.19-0.38L523 306.727l77.084-44.563c0.474-0.284 0.758-0.759 1.233-1.043 10.05-5.689 22.945-2.56 28.918 7.111 2.276 3.698 2.75 7.68 2.465 11.568 0.095 0.853 0.474 1.517 0.474 2.37V447.81l208.119-0.284V337.54c0-10.62 8.912-19.153 20.006-19.153 10.998 0 20.006 8.533 20.006 19.153V626.157c0 40.202-34.039 72.818-75.947 72.818zM183.561 488.2V622.364c0 21.144 17.92 38.306 39.918 38.306h188.586v-172.753l-228.504 0.284z m349.867-140.23l-0.19-0.38c-6.447 3.603-14.601 4.077-21.522 0.095-0.759-0.474-1.233-1.138-1.897-1.707l-55.561-29.582-0.095 344.273h136.723l0.095-346.074-57.553 33.374z m307.864 139.946l-208.119 0.284V660.67H801.47c21.997 0 39.917-17.162 39.917-38.306l-0.095-134.447z"  horiz-adv-x="1024" />
      
      <glyph glyph-name="paimai" unicode="&#59111;" d="M810.325 539.41a34.219 34.219 0 0 1 48.265 0l0.956 0.955a34.219 34.219 0 0 1 0 48.264L587.86 860.314a34.219 34.219 0 0 1-48.264 0l-0.956-0.956a34.219 34.219 0 0 1 0-48.265L810.325 539.41zM342.477 71.56a34.219 34.219 0 0 1 48.264 0l0.956 0.956a34.219 34.219 0 0 1 0 48.265L120.013 392.482a34.219 34.219 0 0 1-48.265 0l-0.955-0.956a34.219 34.219 0 0 1 0-48.264L342.477 71.56z m640.256-49.34L625.152 379.803l87.091 87.09a68.454 68.454 0 0 1 0 96.547L562.671 713.01a68.454 68.454 0 0 1-96.546 0l-248.03-248.013a68.454 68.454 0 0 1 0-96.546L367.667 218.88a68.454 68.454 0 0 1 96.546 0l87.092 87.091 357.58-357.58a51.354 51.354 0 0 1 72.414 0l1.434 1.433a51.37 51.37 0 0 1 0 72.397z m-225.45-54.886c-19.218 0-34.8 15.582-34.8 34.8s-15.582 34.798-34.816 34.798H130.765c-19.217 0-34.8-15.582-34.8-34.799s-15.581-34.799-34.815-34.799a34.816 34.816 0 0 1 0-69.597h696.132a34.816 34.816 0 0 1 0 69.597z"  horiz-adv-x="1024" />
      
      <glyph glyph-name="hongbao" unicode="&#59112;" d="M691.769 749.321H328.818c-80.782 0-146.3-64.474-146.3-144.118v-449.517c0-79.55 65.518-144.119 146.3-144.119h362.856c80.782 0 146.3 64.474 146.3 144.119V605.298c0.094 79.55-65.423 144.023-146.205 144.023z m95.194-589.558c0-25.505-10.335-49.967-28.634-67.793-18.584-18.299-43.71-28.539-69.879-28.444H331.947c-26.17-0.095-51.295 10.145-69.879 28.444-18.3 17.826-28.634 42.288-28.634 67.793V601.316c0 25.505 10.335 49.967 28.634 67.792 18.584 18.3 43.71 28.54 69.879 28.445H688.45c26.17 0.094 51.295-10.146 69.879-28.445 18.3-17.825 28.634-42.287 28.634-67.792v-441.553zM693.286 608.2370000000001c-48.83-48.356-113.873-75.093-182.993-75.093s-134.163 26.643-182.992 75.093c-10.904 10.809-28.445 10.809-39.348 0-10.714-10.524-10.904-27.78-0.38-38.495l0.38-0.379c59.448-58.88 138.334-91.307 222.435-91.307 84.1 0 162.987 32.427 222.246 91.307 10.714 10.524 10.904 27.78 0.38 38.495l-0.38 0.379c-10.904 10.809-28.444 10.809-39.348 0z"  horiz-adv-x="1024" />
      
      <glyph glyph-name="shouhuo" unicode="&#59113;" d="M641.344 353V481c0 17.664 14.336 32 32 32s32-14.336 32-32v-96h96c17.664 0 32-14.336 32-32 0-17.696-14.336-32-32-32h-128c-17.664 0-32 14.304-32 32zM192.192 99.048c0-72.288 58.784-131.072 131.008-131.072 60.448 0 110.912 41.28 126.016 96.992h126.432c15.136-55.712 65.6-97.056 125.984-97.056 72.288 0 131.104 58.88 131.104 131.232 0 72.288-58.816 131.072-131.104 131.072-61.984 0-113.76-43.328-127.328-101.216H450.496c-13.632 57.824-65.344 101.12-127.296 101.12-72.224 0-131.008-58.784-131.008-131.072z m442.336 0.128c0 36.992 30.08 67.072 67.072 67.072 37.024 0 67.104-30.112 67.104-67.072 0-37.088-30.112-67.232-67.104-67.232-36.992 0-67.072 30.144-67.072 67.232z m-378.336-0.096c0 36.992 30.08 67.072 67.008 67.072 36.992 0 67.072-30.08 67.072-67.072 0-36.992-30.112-67.072-67.072-67.072-36.96 0-67.008 30.08-67.008 67.072zM65.344 704.488V97c0-17.696 14.304-32 32-32 17.696 0 32 14.304 32 32V704.488c0 17.92 14.336 32.512 31.968 32.512H625.6c8.672 0 15.744-7.072 15.744-15.744V609c0-1.6 0.672-2.976 0.928-4.544 0.32-2.272 0.544-4.512 1.344-6.688 0.736-1.952 1.888-3.552 2.976-5.28 1.088-1.728 2.016-3.52 3.424-5.056 1.536-1.664 3.424-2.848 5.312-4.16 1.28-0.896 2.208-2.176 3.648-2.88L868.96 474.888C886.912 461.512 896 442.024 896 417v-321.984c0-17.696 14.336-32 32-32s32 14.304 32 32V417c0 46.56-19.904 86.144-56 111.52a33.93 33.93 0 0 1-4 2.4l-194.656 97.824v92.512C705.344 765.224 669.568 801 625.6 801H161.312c-52.896 0-95.968-43.296-95.968-96.512z"  horiz-adv-x="1109" />
      
      <glyph glyph-name="daifukuan" unicode="&#59114;" d="M844.326 513.043v92.255c0 30.53-24.747 55.277-55.277 55.277h-553.34c-30.53 0-55.371-24.747-55.371-55.277v-92.255h663.988z m0-36.883H180.433v-313.458c0-30.53 24.746-55.372 55.277-55.372h553.244c30.53 0 55.277 24.747 55.277 55.372V476.16zM235.71 697.458h553.244c50.916 0 92.255-41.245 92.255-92.16v-442.596c0-50.915-41.245-92.16-92.255-92.16H235.71c-50.916 0-92.255 41.245-92.255 92.255v442.5c0.095 50.916 41.34 92.16 92.255 92.16z m36.883-442.596h147.531v-36.788H272.593v36.788z"  horiz-adv-x="1024" />
      
      <glyph glyph-name="successfully" unicode="&#59115;" d="M932.067 672.3c-11.187 14.316-31.571 17.35-46.456 7.11-14.885-10.24-19.057-30.433-9.48-45.792 109.124-155.866 105.616-364.352-8.723-516.425C752.973-35.07000000000005 553.495-97.45500000000004 372.125-37.53499999999997c-181.37 59.919-303.768 228.679-303.768 418.77C69.211 576.259 197.772 747.863 385.4 804.37c11.661 3.413 20.668 12.799 23.512 24.65s-0.853 24.271-9.765 32.614a34.535 34.535 0 0 1-33.278 7.964C113.297 794.698-40.957 541.1800000000001 9.576 283.77200000000005c50.533-257.406 289.262-434.604 551.693-409.385 262.432 25.22 462.668 244.607 462.668 506.849 0.19 104.195-31.95 205.83-91.87 291.064zM644.606 809.204a448.76 448.76 0 0 0 148.377-76.321c14.98-11.567 36.785-9.102 48.637 5.593 11.661 14.411 9.386 35.459-5.025 47.12-0.285 0.19-0.474 0.38-0.759 0.57C784.26 826.174 725.573 856.133 662.81 874.337c-18.298 5.309-37.64-4.93-43.043-22.85s5.024-36.88 23.323-42.19l1.516-0.094zM491.68 837.362c3.318-2.939 7.205-5.404 11.377-7.11a33.257 33.257 0 0 1 26.262 0c4.171 1.706 8.058 4.076 11.472 7.11 6.447 6.352 10.05 15.075 10.05 24.082-0.095 9.006-3.698 17.634-10.05 24.081-8.154 8.343-20.005 12.04-31.477 9.86a24.085 24.085 0 0 1-6.257-1.99c-2.181-0.76-4.267-1.802-6.258-3.035l-5.214-4.076a35.125 35.125 0 0 1-7.3-11.188 31.856 31.856 0 0 1-2.75-13.558c0.095-4.456 0.948-8.817 2.75-12.894 1.896-4.171 4.36-7.964 7.395-11.282zM211.519 433.476c-7.49-7.206-11.662-17.066-11.662-27.495 0-10.334 4.172-20.194 11.662-27.495L409.385 183.17999999999995c7.49-7.395 17.54-11.472 28.064-11.472 10.524 0 20.573 4.077 28.063 11.472L821.046 533.5c15.644 14.695 16.402 39.345 1.612 54.988-0.285 0.285-0.474 0.57-0.759 0.759-15.454 15.643-40.957 16.023-56.885 0.853L437.07 268.60299999999995 267.55 433.476c-15.549 15.074-40.578 15.074-56.032 0z"  horiz-adv-x="1024" />
      
      <glyph glyph-name="search" unicode="&#59116;" d="M509.952-80.89599999999996l129.024 176.42-129.024 37.157v-213.577zM53.833 334.26300000000003l366.885-111.177 451.73 383.56-350.208-413.11 392.046-121.125L1116.16 848.603 53.833 334.26300000000003z"  horiz-adv-x="1170" />
      
      <glyph glyph-name="qianshou1" unicode="&#59117;" d="M625.588 363.994L475.686 230.02099999999996l-78.317 78.317c-6.827 6.826-18.205 7.964-24.936 0-2.276-2.276-4.552-5.69-4.552-7.965-1.137-6.826 0-12.515 4.552-17.066l90.832-90.833c3.414-3.413 7.965-5.689 12.516-5.689s9.102 1.138 12.515 4.551l162.228 144.308c7.965 6.827 7.965 18.205 1.138 24.937s-18.204 10.24-26.074 3.413zM801.47 699.923H222.53c-44.657 0-79.36-34.702-79.36-79.36v-104.202c0-34.702 21.523-62.862 52.907-74.43v-294.4c0-43.045 34.702-79.36 79.36-79.36h473.031c43.046 0 79.36 34.703 79.36 79.36v294.4c31.384 11.568 52.907 39.728 52.907 74.43V620.4680000000001c-1.517 44.658-36.314 79.455-79.265 79.455z m40.296-177.114c0-15.645-12.136-38.02-27.78-38.02s-27.782-12.137-27.782-27.782V135.87c0-15.645-12.136-27.781-27.78-27.781H262.163c-15.644 0-27.78 12.136-27.78 27.78V439.562H593.54c15.644 0 27.78 8.534 27.78 24.083s-12.136 21.144-27.78 21.144H206.696c-15.644 0-27.78 12.136-27.78 27.78V632.13c0 15.645 12.136 27.781 27.78 27.781H814.08c15.644 0 27.78-12.136 27.78-27.78v-109.322z"  horiz-adv-x="1024" />
      
      <glyph glyph-name="zuanshi1" unicode="&#59118;" d="M511.905 49.11400000000003c-35.366-0.284-68.74 16.308-89.79 44.753l-264.817 365.89c-17.257 23.514-18.963 55.087-4.457 80.403l78.697 138.904C246.234 704 273.16 719.17 302.08 718.886h419.46c28.92 0.284 55.847-14.886 70.543-39.822l78.696-138.43c14.602-25.315 12.8-56.889-4.456-80.403L739.366 284.73c-7.206-9.956-21.049-12.136-31.005-4.93s-12.136 21.048-4.93 31.004l127.905 175.028a29.599 29.599 0 0 1 0 32.427l-78.696 138.43c-6.732 11.188-18.868 17.92-31.953 17.73H302.175c-13.085 0.284-25.22-6.448-31.953-17.73l-77.938-138.43a29.97 29.97 0 0 1 0-32.427l266.05-365.606c22.756-29.582 65.233-35.176 94.816-12.42a70.007 70.007 0 0 1 12.42 12.42l35.935 49.21c7.206 9.955 21.05 12.135 31.005 4.93s12.136-21.05 4.93-31.005l-35.935-49.209C580.551 65.80100000000004 547.271 49.210000000000036 512 49.39999999999998l-0.095-0.285z m0 138.145c-16.024-0.19-31.194 7.396-40.58 20.385L362.381 359.34799999999996c-4.93 11.188 0.095 24.273 11.283 29.203 8.344 3.698 18.11 1.896 24.652-4.646l108.942-150.47c1.138-1.234 2.75-1.992 4.457-1.992s3.318 0.664 4.456 1.991L625.209 384c5.215 11.093 18.394 15.834 29.487 10.62 11.094-5.216 15.834-18.395 10.62-29.488-0.949-2.086-2.276-3.982-3.888-5.689L552.486 208.97199999999998c-9.197-13.559-24.367-21.618-40.58-21.713z"  horiz-adv-x="1024" />
      
      <glyph glyph-name="yiquxiao" unicode="&#59119;" d="M685.796 683.9h40.011c40.012 0 70.069-30.057 70.069-70.069v-240.355c0-13.37 10.05-23.325 23.324-23.325s23.324 10.05 23.324 23.325V610.513c0 63.43-50.062 116.811-116.811 116.811H685.7c-13.37 0-23.325-10.05-23.325-23.324 3.319-10.05 13.37-20.1 23.42-20.1zM508.87 59.732H291.84c-40.012 0-70.068 30.057-70.068 70.068V610.513c-3.319 40.011 30.056 73.386 70.068 73.386h40.012c13.369 0 20.006 10.05 20.006 23.325s-6.637 20.006-20.006 20.006H291.84c-63.431 0-116.812-50.063-116.812-116.812v-480.522c0-63.43 50.062-116.812 116.812-116.812h216.936c13.37 0 23.325 10.05 23.325 23.325 0.095 13.369-9.861 23.324-23.23 23.324z m253.63 90.17l80.118 80.118c10.05 10.05 6.637 23.324-3.318 30.056-10.05 6.637-20.006 6.637-30.057 0l-80.118-80.118-80.119 80.118c-10.05 10.05-23.324 6.637-30.056-3.318-6.637-10.05-6.637-20.006 0-30.057l80.119-80.118-80.119-80.119c-10.05-10.05-6.637-23.324 3.319-30.056 10.05-6.637 20.006-6.637 30.056 0l80.118 80.118 80.119-80.118c10.05-10.05 23.324-10.05 30.056-3.319 10.05 10.05 10.05 23.325 3.319 30.057 0 0 0 3.318-3.319 3.318l-80.118 83.437zM418.702 707.318h176.925c13.369 0 23.324 10.05 23.324 23.324 0 13.369-10.05 20.006-20.006 20.006H418.702c-13.369 0-20.006-10.05-20.006-23.325s10.05-20.005 20.006-20.005zM331.947 484.409c0-13.369 10.05-23.325 23.324-23.325h310.424c13.369 0 23.324 10.05 23.324 23.325-3.318 13.369-10.05 23.324-23.324 23.324H351.953c-9.956 0-20.006-9.955-20.006-23.324z m20.006-120.415c-13.37 0-23.325-10.05-23.325-23.324 0-13.37 10.05-23.325 23.325-23.325h133.499c13.369 0 23.324 10.05 23.324 23.325 0 13.369-10.05 23.324-23.324 23.324h-133.5z"  horiz-adv-x="1024" />
      
      <glyph glyph-name="caidan-shupai" unicode="&#59120;" d="M428.8 718.08a83.2 83.2 0 1 0 166.4 0 83.2 83.2 0 0 0-166.4 0z m0-334.08a83.2 83.2 0 0 0 166.4 0 83.2 83.2 0 0 0-166.4 0z m0-334.144a83.2 83.2 0 0 0 166.4 0 83.2 83.2 0 0 0-166.4 0z"  horiz-adv-x="1024" />
      
      <glyph glyph-name="data" unicode="&#59121;" d="M823.906-35.625c-17.718 0-27.937 10.219-27.937 27.938V484.875c0 17.719 10.218 27.938 27.937 27.938s27.938-10.22 27.938-27.938v-492.563c0-17.718-10.219-27.937-27.938-27.937z m-215.062 0c-10.782 0-21 10.219-21 21v249.75c0 10.781 10.218 21 21 21h13.875c10.781 0 21-10.219 21-21v-249.75c0-10.781-10.219-21-21-21h-13.875z m-215.063 0c-10.781 0-21 10.219-21 21V269.813c0 10.78 10.219 21 21 21h4.313c3.094 2.156 6 2.718 8.062 2.718 7.781 0 15.563-7.312 15.563-23.718v-284.438c0-10.781-10.219-21-21-21h-6.938z m-242.719 0c-9.093 0-14.062 7.219-14.062 14.063V103.31200000000001c0 9.093 7.219 14.062 14.063 14.062h20.812c9.094 0 14.063-7.219 14.063-14.063v-124.875c0-6.843-4.97-14.062-14.063-14.062h-20.813z m27.75 298.313h-0.468a6.804 6.804 0 0 0-4.969 2.53l-34.688 41.626c-2.437 2.906-2.156 7.218 0.657 9.75l298.312 277.5c1.406 1.312 3.094 1.875 4.875 1.875 1.688 0 3.281-0.563 4.688-1.781L546.03 508.5l164.344 177.469-64.969 71.437c-1.781 1.969-2.343 4.688-1.406 7.125 0.844 2.438 3 4.219 5.625 4.688l228.938 34.687c0.375 0.094 0.75 0.094 1.03 0.094 1.97 0 3.938-0.844 5.25-2.344 1.595-1.781 2.25-4.219 1.595-6.562L830.75 580.219a7.182 7.182 0 0 0-5.156-5.156c-0.563-0.094-1.125-0.188-1.688-0.188-1.968 0-3.937 0.844-5.25 2.344L761.47 640.78 558.687 417.656c-1.406-1.5-3.28-2.344-5.25-2.344-1.593 0-3.187 0.563-4.5 1.594l-106.218 86.25-259.125-238.594a7.152 7.152 0 0 0-4.781-1.875z"  horiz-adv-x="1024" />
      
      <glyph glyph-name="shouhuo1" unicode="&#59122;" d="M733.298 671.953H216.936c-40.77 0-73.766-32.996-73.766-73.766v-36.883c0-40.77 32.996-73.766 73.766-73.766h516.362c40.77 0 73.766 32.995 73.766 73.766v36.883c0 40.675-32.996 73.766-73.766 73.766z m31.289-110.365l-0.285-4.267c-2.18-18.204-17.635-31.952-35.935-31.952H221.772l-4.267 0.284c-18.204 2.181-31.952 17.636-31.952 35.935v36.22l0.284 4.266c2.18 18.205 17.636 31.953 35.935 31.953h506.595l4.267-0.285c18.205-2.18 31.953-17.635 31.953-35.935v-36.219zM216.936 523.567a18.403 18.403 0 0 0 18.11-15.075l0.284-3.319v-349.677c0-28.539 21.618-52.337 49.968-55.087l5.31-0.285H437.57c10.146 0 18.49-8.248 18.49-18.394 0-8.912-6.353-16.592-15.171-18.204l-3.319-0.285H290.607c-48.545 0-88.841 37.642-92.065 86.187l-0.19 6.068V505.173c0.19 10.146 8.44 18.394 18.584 18.394z m479.479-109.795c101.83 0 184.415-82.584 184.415-184.415s-82.584-184.415-184.415-184.415S512 127.43200000000002 512 229.35699999999997s82.584 184.415 184.415 184.415z m0-36.883c-81.446 0-147.532-65.991-147.627-147.437 0-81.446 65.991-147.532 147.437-147.627h0.095c81.446 0 147.532 66.086 147.532 147.532 0.095 81.446-65.991 147.437-147.437 147.532zM696.415 337.73a18.403 18.403 0 0 0 18.11-15.075l0.284-3.319v-83.626h55.372c8.912 0 16.592-6.353 18.11-15.17l0.284-3.32a18.403 18.403 0 0 0-15.076-18.109l-3.318-0.284h-73.766a18.403 18.403 0 0 0-18.11 15.075l-0.284 3.319V319.336c0 10.145 8.249 18.394 18.394 18.394z"  horiz-adv-x="1024" />
      
      <glyph glyph-name="caidan" unicode="&#59123;" d="M134.07 158.52099999999996c-33.398 0-63.281-28.125-63.281-61.523s29.883-63.281 63.281-63.281 61.523 29.883 61.523 63.281-28.125 61.523-61.523 61.523zM134.07 460.865c-33.398 0-63.281-28.125-63.281-61.523s29.883-61.523 63.281-61.523 61.523 28.125 61.523 61.523-28.125 61.523-61.523 61.523zM359.07 645.436h532.617c31.641 0 58.008 24.609 58.008 56.25s-26.367 58.008-58.008 58.008H359.07c-31.641 0-58.008-26.367-58.008-58.008s26.367-56.25 58.008-56.25zM134.07 764.967c-33.398 0-63.281-29.883-63.281-63.281s29.883-61.523 63.281-61.523 61.523 28.125 61.523 61.523-28.125 63.281-61.523 63.281zM891.688 457.35H359.071c-31.641 0-58.008-26.367-58.008-58.008s26.367-58.008 58.008-58.008h532.617c31.641 0 58.008 26.367 58.008 58.008s-26.367 58.008-58.008 58.008zM891.688 155.00599999999997H359.071c-31.641 0-58.008-26.367-58.008-58.008s26.367-58.008 58.008-58.008h532.617c31.641 0 58.008 26.367 58.008 58.008s-26.367 58.008-58.008 58.008z"  horiz-adv-x="1024" />
      
      <glyph glyph-name="picturefill" unicode="&#59124;" d="M845.26 573.646l-135.077 6.55-7.86 88.086c-1.637 18.501-18.173 31.436-37.493 29.962l-484.638-39.786c-19.32-1.637-33.237-17.192-31.763-35.53l34.71-386.072c1.637-18.502 18.338-31.436 37.494-29.963l24.56 1.965-3.93-74.988c-0.983-20.63 15.063-37.33 36.675-38.476l540.633-25.706c21.613-0.982 39.459 14.081 40.605 34.711l22.758 431.098c0.983 20.466-15.226 37.167-36.675 38.15zM264.02 564.97l-11.625-220.707-28.488-40.441-26.197 291.437v0.82 0.818c0.819 8.186 7.04 14.735 15.554 15.39l427.333 35.038c8.514 0.655 15.882-4.912 17.191-12.934 0-0.328 0.492-0.328 0.492-0.655 0-0.164 0.49-0.328 0.49-0.655l4.421-50.429-358.566 17.192c-21.612 0.655-39.622-14.408-40.605-34.874zM811.04 177.09500000000003l-76.462 90.542-45.025 53.54c-3.93 4.747-10.315 8.677-17.355 9.004-7.04 0.328-12.28-2.456-18.174-6.713l-26.852-19.483c-5.73-3.439-10.151-5.73-16.21-5.403-5.893 0.327-11.133 2.62-14.898 6.221-1.31 1.31-3.766 3.602-5.73 5.567l-70.077 80.064c-5.076 6.385-13.426 10.478-22.595 10.97-9.332 0.49-18.337-3.439-24.231-9.17L307.9 214.09799999999996l-11.134-12.116 0.491 11.134 11.134 211.047 5.403 102.985v0.819 0.819c2.292 8.84 10.151 15.226 19.484 14.735l334.334-16.045 46.99-2.293 95.454-4.584c9.497-0.491 16.864-7.695 17.028-16.7 0-0.328 0.491-0.491 0.491-0.819 0-0.327 0.492-0.491 0.492-0.819L811.04 177.09500000000003zM707.072 373.73299999999995c31.763 0 57.632 25.87 57.632 57.633S739 488.998 707.072 488.998c-31.764 0-57.633-25.705-57.633-57.632s25.706-57.633 57.633-57.633z"  horiz-adv-x="1024" />
      
      <glyph glyph-name="shaixuan" unicode="&#59125;" d="M868.645 833.723H155.614c-50.746 0-92.042-41.296-92.042-92.042 0-24.208 9.32-46.862 26.409-64.21 0.517-0.905 1.165-1.812 1.941-2.588l284.022-309.395v-170.75c0-21.1 17.088-38.188 38.189-38.188s38.189 17.088 38.189 38.189V392.414c0 2.978-1.165 5.826-3.237 7.897L147.458 727.182c-0.647 0.906-1.295 1.812-2.2 2.46-2.201 1.812-5.826 5.955-5.826 12.039 0 8.932 7.25 16.182 16.182 16.182h712.902c8.932 0 16.182-7.25 16.182-16.182 0-6.084-3.625-10.227-5.826-12.04-0.906-0.776-1.683-1.553-2.2-2.588L575.431 400.31c-2.07-2.071-3.236-4.92-3.236-7.897s0.13-153.143 0.13-402.213c0-8.932-7.38-16.181-16.312-16.181-6.213 0-10.356 3.624-12.168 5.825-0.777 0.906-1.683 1.683-2.59 2.2l-46.732 45.698c-2.201 2.2-32.364 17.217-51.652-1.942-20.584-20.583-3.366-51.134-2.33-52.17l48.415-47.38c0.777-0.776 1.683-1.424 2.59-1.942 17.476-16.958 40.26-26.279 64.467-26.279 51.005 0 92.43 41.296 92.43 92.042V365.359l284.022 309.394c0.777 0.777 1.424 1.683 1.942 2.59 16.958 17.346 26.408 40 26.408 64.208-0.129 50.876-41.425 92.172-92.17 92.172z"  horiz-adv-x="1024" />
      
      <glyph glyph-name="index" unicode="&#59126;" d="M569.804446 874.716384a82.073213 82.073213 0 0 1-110.283943 0L13.57278 451.270445a41.139605 41.139605 0 0 1 55.090472-61.105414l7.090932 6.731935v-441.953761a82.277211 82.277211 0 0 1 82.27821-82.37921h239.434704V120.26561900000002a57.932444 57.932444 0 0 0 57.957445 58.009444H568.089462a57.932444 57.932444 0 0 0 57.957444-58.009444v-247.703624h245.11765a82.277211 82.277211 0 0 1 82.30321 82.38021V391.496018c18.277825-16.537841 44.210576-15.282853 59.417431 1.663984a41.139605 41.139605 0 0 1-2.969972 58.111443L569.804446 874.690384z"  horiz-adv-x="1024" />
      
      <glyph glyph-name="tuangou" unicode="&#59127;" d="M1018.88 428.032l-68.096 271.872c-4.096 17.408-21.504 34.816-38.912 38.912l-75.264 18.944c13.824-7.168 25.6-20.992 29.184-35.328l68.096-271.872c8.704-34.816-5.12-83.456-29.696-108.544L538.624-23.55200000000002c-13.824-13.824-30.72-22.528-48.128-26.112 37.888-34.304 96.768-33.28 133.632 3.584l365.568 365.568c24.576 25.088 37.888 73.728 29.184 108.544zM399.36 806.912c25.088 25.088 73.728 38.4 108.544 29.696l271.872-68.096c17.408-4.096 34.816-21.504 38.912-38.912l68.096-271.872c8.704-34.816-5.12-83.456-29.696-108.544L491.52-16.384000000000015c-37.888-37.888-99.328-37.888-137.216-0.512L33.28 304.12800000000004c-37.888 37.888-37.888 99.328 0.512 137.216L399.36 806.912zM627.712 578.56c25.088-25.088 66.048-25.088 91.648 0 25.088 25.088 25.088 66.048 0 91.648s-66.048 25.088-91.648 0c-25.088-25.6-25.088-66.56 0-91.648z"  horiz-adv-x="1024" />
      
      <glyph glyph-name="faxian" unicode="&#59128;" d="M511.912 833.648c248.28 0 449.56-201.278 449.56-449.56 0-248.28-201.28-449.56-449.56-449.56-248.282 0-449.56 201.28-449.56 449.56 0 248.282 201.278 449.56 449.56 449.56z m0.088-51.503c-219.894 0-398.145-178.251-398.145-398.145S292.106-14.144999999999982 512-14.144999999999982 910.145 164.106 910.145 384 731.894 782.145 512 782.145zM716.076 588.2919999999999a44.954 44.954 0 0 0 10.505-47.025l-82.31-228.636a101.146 101.146 0 0 0-60.913-60.901l-228.625-82.311a44.954 44.954 0 0 0-57.53 57.53l82.31 228.636a101.146 101.146 0 0 0 60.913 60.901l228.626 82.312a44.954 44.954 0 0 0 47.024-10.506zM512 448.662c-35.713 0-64.663-28.95-64.663-64.662 0-35.713 28.951-64.663 64.663-64.663 35.713 0 64.663 28.951 64.663 64.663 0 35.713-28.951 64.663-64.663 64.663z"  horiz-adv-x="1024" />
      
      <glyph glyph-name="dingdanguanli" unicode="&#59129;" d="M760.225 15.169999999999959h-496.45c-56.605 0-103.064 43.71-103.064 97.85V654.98c0 54.235 46.27 97.755 103.064 97.755h88.083v-40.676h-88.083c-34.418 0-62.483-25.6-62.483-57.078v-541.867c0-31.478 27.97-57.078 62.483-57.078h496.45c34.418 0 62.483 25.6 62.483 57.078V654.981c0 31.478-27.97 57.078-62.483 57.078h-82.11v40.676h82.015c56.605 0.095 103.064-43.52 103.064-97.754v-541.867c0.095-54.234-46.364-97.944-102.969-97.944zM580.646 712.154h-127.62c-11.189 0-20.291 9.102-20.291 20.29 0 11.189 9.102 20.29 20.29 20.29h127.526c11.188 0 20.29-9.101 20.29-20.29 0.095-11.188-9.007-20.29-20.195-20.29z m134.542-226.513h-389.12c-11.188 0-20.29 9.103-20.29 20.29 0 11.189 9.102 20.291 20.29 20.291h389.12c11.188 0 20.29-9.102 20.29-20.29 0.095-11.188-9.007-20.29-20.29-20.29z m0-133.499h-389.12c-11.188 0-20.29 9.102-20.29 20.29s9.102 20.291 20.29 20.291h389.12c11.188 0 20.29-9.102 20.29-20.29s-9.007-20.29-20.29-20.29z m0-133.31h-389.12c-11.188 0-20.29 9.103-20.29 20.386 0 11.188 9.102 20.29 20.29 20.29h389.12c11.188 0 20.29-9.102 20.29-20.385s-9.102-20.29-20.29-20.29z"  horiz-adv-x="1024" />
      
      <glyph glyph-name="shouye" unicode="&#59130;" d="M659.884 813.056h0.048l314.08-225.579c31.211-22.425 49.951-60.175 49.951-100.598v-431.733c0-66.747-50.2-120.864-112.141-120.892H283.566c-61.942 0.027-112.142 54.145-112.142 120.892V486.879c0 40.383 18.738 78.158 49.904 100.598L535.457 813.056c37.664 27.092 86.762 27.092 124.426 0zM470.715 247.55200000000002c-16.29 12.445-39.603 9.369-52.082-6.896-12.478-16.274-9.387-39.563 6.903-52.027 50.715-38.79 111.532-58.24 172.486-58.24 60.866 0 121.86 19.39 173.041 58.24 16.262 12.455 18.995 35.416 6.566 51.69-12.42 16.255-36.028 19.144-52.368 6.758-75.048-56.955-179.716-56.777-254.546 0.475z"  horiz-adv-x="1189" />
      
      <glyph glyph-name="faxian1" unicode="&#59131;" d="M511.892 833.648c248.27 0 449.541-201.27 449.541-449.54S760.162-65.43299999999999 511.892-65.43299999999999 62.352 135.83799999999997 62.352 384.108s201.27 449.54 449.54 449.54z m157.652-234.676l-0.492-0.174-228.626-82.312a101.146 101.146 0 0 1-60.602-60.052l-0.31-0.849-82.312-228.637a44.954 44.954 0 0 1 57.039-57.703l0.492 0.174 228.625 82.31a101.146 101.146 0 0 1 60.603 60.053l0.31 0.85 82.31 228.635a44.954 44.954 0 0 1-57.037 57.705zM512 448.662c35.713 0 64.663-28.95 64.663-64.662 0-35.713-28.951-64.663-64.663-64.663-35.713 0-64.663 28.951-64.663 64.663 0 35.713 28.951 64.663 64.663 64.663z"  horiz-adv-x="1024" />
      
      <glyph glyph-name="shouye1" unicode="&#59132;" d="M574.298 813.662L888.687 587.86c31.24-22.445 50-60.232 50-100.695V55.00999999999999c0-66.812-50.25-120.982-112.252-121.01h-628.87c-62.003 0.027-112.251 54.197-112.251 121.009V487.165c0 40.422 18.756 78.235 49.953 100.697L449.7 813.662c37.702 27.117 86.847 27.117 124.549 0h0.047z m-81.063-39.496l-5.641-3.457-330.505-238.433c-10.447-7.523-17.354-19.593-18.922-33.066l-0.299-5.835v-456.334c0-23.828 16.475-43.494 37.742-46.358l5.393-0.378h661.16c21.967 0 40.14 17.83 42.836 40.847l0.299 5.889V493.375c0 13.282-5.235 25.935-14.378 34.795l-4.793 4.052-330.605 238.487c-12.566 9.079-28.603 10.39-42.287 3.457zM512.267 137.13c-54.56 0-108.995 17.428-154.387 52.184-14.581 11.17-17.347 32.035-6.179 46.617 11.17 14.573 32.035 17.329 46.617 6.178 66.977-51.297 160.663-51.456 227.835-0.425 14.626 11.097 35.758 8.509 46.874-6.055 11.124-14.58 8.677-35.155-5.877-46.315-45.81-34.809-100.405-52.183-154.883-52.183z"  horiz-adv-x="1027" />
      
      <glyph glyph-name="qianshou" unicode="&#59133;" d="M556.279 574.8620000000001h-83.912c-13.558 0-24.557 10.999-24.557 24.557s10.999 24.557 24.557 24.557h83.912c13.558 0 24.557-10.998 24.557-24.557s-10.999-24.557-24.557-24.557zM730.453 70.827H293.547c-54.33 0-98.418 44.089-98.418 98.417V526.317c0 54.329 44.089 98.418 98.418 98.418h30.15c13.56 0 24.558-10.999 24.558-24.557s-10.999-24.557-24.557-24.557h-30.151c-27.023-0.19-48.735-22.187-48.546-49.21v-357.83c0-26.833 21.713-48.545 48.546-48.545h436.812c26.832 0 48.545 21.712 48.545 48.545V526.317c-0.19 26.738-21.808 48.356-48.545 48.545H703.81c-13.558 0-24.557 10.999-24.557 24.557s10.999 24.557 24.557 24.557h26.549c54.328 0 98.417-44.089 98.417-98.417V168.39c-0.284-53.95-44.278-97.564-98.323-97.564zM399.834 526.696c-13.558 0-24.557 10.999-24.557 24.557V672.996c0 13.558 10.999 24.557 24.557 24.557s24.557-10.999 24.557-24.557v-121.648c-0.095-13.558-10.998-24.462-24.557-24.652z m233.15 0c-13.464 0.19-24.463 11.094-24.557 24.557V672.996c0 13.558 10.998 24.557 24.652 24.557 13.558 0 24.557-10.999 24.557-24.557v-121.648a24.603 24.603 0 0 0-24.652-24.652z m-122.311-100.03c9.576 0 17.73-6.826 19.437-16.213l0.284-3.508v-89.695h59.354c9.576 0 17.73-6.826 19.437-16.213l0.285-3.508c0-9.576-6.827-17.73-16.214-19.437l-3.508-0.285h-79.17a19.731 19.731 0 0 0-19.437 16.214l-0.285 3.508V406.85a19.747 19.747 0 0 0 19.817 19.817z"  horiz-adv-x="1024" />
      
      <glyph glyph-name="zhongcao1" unicode="&#59134;" d="M798.175 290.226c-99.183-24.241-188.449-100.082-251.364-213.793a51.554 51.554 0 0 1-4.412-11.521V227.111c30.658 17.936 181.738 110.304 278.117 237.54 59.911 79.046 73.735 182.936 35.363 264.59-30.555 64.72-88.464 103.39-155.087 103.39-96.374 0-156.989-64.317-189.044-113.006-32.063 48.689-92.774 113.006-189.052 113.006-66.523 0-124.532-38.67-154.989-103.39-38.372-81.753-24.645-185.646 35.368-264.59 96.375-127.236 247.557-219.604 278.112-237.54v-170.315a54.312 54.312 0 0 1-5.908 19.734c-62.92 113.613-152.182 189.557-251.369 213.798-19.131 4.611-39.168-1.902-52.294-16.931-13.124-15.027-17.435-36.37-11.021-55.605 38.572-116.015 134.249-195.657 262.688-218.399 2.906-0.506 5.71-0.805 8.614-0.805 25.247-0.095 46.385 19.438 49.291 45.382v-73.331c0-17.532 13.727-31.663 30.657-31.663 16.932 0 30.658 14.131 30.658 31.663v65.424c6.012-22.246 25.545-37.569 47.886-37.475 2.905 0 5.812 0.299 8.619 0.805 187.345 33.258 248.36 175.121 262.684 218.399 6.311 19.235 2.104 40.476-11.021 55.605-13.223 15.028-33.26 21.542-52.396 16.931l-0.1-0.102z m0 0"  horiz-adv-x="1024" />
      
      <glyph glyph-name="xuanze" unicode="&#59135;" d="M0-128L1024 896v-1024H0z m906.624 576l-320-341.312L373.312 220.48 320 163.584 586.624-64 960 448h-53.376z"  horiz-adv-x="1024" />
      
      <glyph glyph-name="jiagouyonghu" unicode="&#59136;" d="M516.95 630.6C518 487.02 618.18 363.25 758.39 332.31c0.57-17.08-12.75-31.42-29.83-32.1h-473.8l7.34-60.08h456.27a35.273 35.273 0 0 0 31.62-11.57c8.62-10.57 7.03-26.13-3.54-34.75a24.664 24.664 0 0 0-10.06-4.92 88.25 88.25 0 0 0-21.36-2.33H254.58c-34.84 0-40.39 4.47-44.56 39.14-14.04 116.1-27.96 232.19-41.76 348.29-4.12 34.18-8.77 68.31-12.53 102.55-0.84 7.46-3.46 9.6-10.5 9.49-16.66-0.36-33.33-0.36-49.99 0-15.84-1.1-29.66 10.67-31.08 26.49 1.96 15.7 15.83 27.14 31.62 26.07 26.13 0.48 52.24 0.93 78.33 1.37 15.98 0.99 29.73-11.17 30.72-27.14 2.98-23.86 6.44-47.25 8.53-70.99 0.84-9.19 4.3-10.98 12.65-10.98 92.87 0.24 185.72 0.24 278.54 0l12.4-0.25z m96.89-32.63c0.23 95.55 77.88 172.82 173.43 172.59 95.55-0.23 172.82-77.88 172.59-173.43-0.23-95.55-77.88-172.82-173.43-172.59h-0.47c-95.16 0.1-172.21 77.31-172.12 172.47-0.01 0.32-0.01 0.64 0 0.96z m139.84-30.37v-56.26c-0.04-8.29 0.86-16.55 2.68-24.64 1.57-12.22 11.9-21.43 24.22-21.6 17.9-1.01 26.79 3.82 32.33 18.79 2.5 7.1 3.83 14.55 3.94 22.07 0.54 19.93 0 39.91 0 60.97 10.38 0 19.45-0.36 28.4 0 10.95 0 21.87 1 32.63 2.98 15.79 4.68 24.8 21.28 20.12 37.08a29.81 29.81 0 0 1-21.49 20.49c-8.92 1.61-17.96 2.41-27.03 2.39-10.5 0.36-21 0-32.63 0v15.99c0.17 14.34-0.73 28.68-2.68 42.89-2.33 15.02-16.09 25.54-31.2 23.86-14.77 0.03-27.03-11.39-28.04-26.13-1.07-6.35-1.57-12.78-1.49-19.21v-37.47h-14.85c-12.89 0-25.83 0-38.6-1.13-16.01-0.27-28.77-13.46-28.51-29.47 0.03-1.99 0.27-3.97 0.71-5.91 1.9-15.51 15.62-26.81 31.2-25.71 16.29-0.66 32.51 0 50.23 0h0.06z m-490.4-503.22c-0.36 36.51 28.94 66.39 65.45 66.75 36.5 0.36 66.39-28.94 66.75-65.45 0.01-1.13-0.01-2.26-0.05-3.39-1.65-35.62-30.52-63.92-66.16-64.85-36.61 0.49-66.02 30.33-65.99 66.94z m464.62-1.79c-0.49-36.44-30.43-65.57-66.87-65.08-36.44 0.5-65.57 30.43-65.08 66.87 0.49 36.23 30.1 65.28 66.33 65.09 36.47-0.29 65.8-30.1 65.51-66.57v-0.31h0.11z"  horiz-adv-x="1024" />
      
      <glyph glyph-name="gouwuche" unicode="&#59137;" d="M352.016 62.99300000000005c-35.497 0-64.251-28.756-64.251-64.257 0-35.493 28.755-64.248 64.251-64.248 35.5 0 64.25 28.755 64.25 64.248 0 35.5-28.75 64.257-64.25 64.257z m449.76 0c-35.5 0-64.255-28.756-64.255-64.257 0-35.493 28.755-64.248 64.254-64.248 35.496 0 64.25 28.755 64.25 64.248 0 35.5-28.754 64.257-64.25 64.257z m63.735 40.945H343.696c-46.293 0-86.995 27.798-92.651 74.543L196.56 562.06l-31 179.26c-1.928 15.64-16.191 37.255-30.132 37.255H94.5c-17.735 0-32.127 9.98-32.127 27.71C62.374 824.02 76.765 834 94.501 834h40.927c46.87 0 79.2-36.623 84.887-83.367l30.936-178.582 54.71-385.216c1.8-14.908 24.114-27.471 37.736-27.471h521.814c17.765 0 32.127-9.946 32.127-27.71 0-17.765-14.363-27.716-32.127-27.716h-9.676 9.675zM383.853 223.61699999999996c-16.672 0-30.776 9.322-32 26.253-1.314 17.698 11.984 31.324 29.652 32.608l447.289 32.127c15.995 0.092 29.49 17.951 31.255 32.245l50.598 289.515c1.285 10.793-1.701 27.912-8.156 35.235-4.147 4.692-9.353 7.069-15.422 7.069H319.377c-17.735 0-32.126 11.745-32.126 29.48 0 17.73 14.39 29.475 32.126 29.475h556.221c24.544 0 47.093-10.182 63.51-28.72 18.764-21.173 27.373-51.015 23.612-81.95l-50.626-289.551c-5.46-45.038-46.132-81.66-92.426-81.66l-433.437-32.03c-0.801-0.066-1.606-0.096-2.375-0.096h-0.002z"  horiz-adv-x="1024" />
      
      <glyph glyph-name="gouwuche1" unicode="&#59138;" d="M453.701 34.716999999999985a50.803 50.803 0 1 1 101.605 0 50.803 50.803 0 1 1-101.605 0zM711.741 34.716999999999985a50.803 50.803 0 1 1 101.605 0 50.803 50.803 0 1 1-101.605 0zM687.326 762.544a44.17 44.17 0 0 1-62.434-0.13l-119.976-120.45 302.882 0.596-120.472 119.984zM882.191 616.769H336.95l-4.676 26.18c-1.674 46.99-40.418 84.702-87.804 84.702h-53.89a32.118 32.118 0 0 1-32.126-32.126 32.11 32.11 0 0 1 32.126-32.126h53.89a23.628 23.628 0 0 0 23.605-23.605c0-1.895 0.168-3.79 0.504-5.648l89.333-500.468a32.118 32.118 0 0 1 31.583-26.487c0.535 0 1.07 0.115 1.598 0.146 0.435-0.023 0.87-0.138 1.314-0.138h435.827a32.126 32.126 0 1 1 0 64.252H416.424l-8.123 45.538h451.072c47.838 0 86.88 38.43 87.842 86.046l22.681 222.606 0.168 3.255c0 48.464-39.416 87.873-87.873 87.873z m-355.954-259.86a26.77 26.77 0 1 0-53.539 0V470.796a26.77 26.77 0 1 0 53.539 0V356.90999999999997z m136.757 0a26.77 26.77 0 1 0-53.546 0V470.796a26.77 26.77 0 1 0 53.546 0V356.90999999999997z m130.965 0a26.77 26.77 0 1 0-53.546 0V470.796a26.77 26.77 0 1 0 53.546 0V356.90999999999997z"  horiz-adv-x="1192" />
      
      <glyph glyph-name="caidan1" unicode="&#59139;" d="M96.7 388.8a91.5 91.5 0 1 1 183 0 91.5 91.5 0 1 1-183 0z m328 0a91.5 91.5 0 1 1 183 0 91.5 91.5 0 1 1-183 0z m320.3 0a91.5 91.5 0 1 1 183 0 91.5 91.5 0 1 1-183 0z"  horiz-adv-x="1024" />
      
      <glyph glyph-name="gouwuche2" unicode="&#59140;" d="M351.233 62.81299999999999c-35.51 0-64.273-28.762-64.273-64.274s28.762-64.274 64.273-64.274c35.513 0 64.275 28.762 64.275 64.274 0 35.511-28.731 64.274-64.275 64.274z m449.92 0c-35.511 0-64.275-28.762-64.275-64.274s28.763-64.274 64.274-64.274c35.511 0 64.274 28.762 64.274 64.274 0 35.511-28.73 64.274-64.274 64.274z m136.873 646.083c-16.423 18.542-38.983 28.602-63.537 28.602h-643.93l-2.28 13.08c-5.625 46.76-46.793 83.331-93.713 83.331H94.138C76.367 833.91 62 819.545 62 801.772c0-17.772 14.366-32.137 32.138-32.137h40.427c13.98 0 28.25-12.726 30.145-28.377l31.044-179.261 54.505-383.748c5.657-46.76 46.374-83.492 92.684-83.492h522.483c17.773 0 32.138 14.366 32.138 32.138 0 17.771-14.365 32.137-32.138 32.137H342.943c-13.69 0-27.157 12.661-28.956 27.573l-5.335 37.505 509.888 31.526c46.277 0 86.995 36.668 92.458 81.724l50.648 289.587c3.76 30.948-4.853 60.772-23.621 81.949z"  horiz-adv-x="1024" />
      
      <glyph glyph-name="xiaoxi2" unicode="&#59141;" d="M513.946 817.05a435.2 435.2 0 0 0 0-870.4h-349.03V120.73000000000002l-12.238 18.176A435.2 435.2 0 0 0 513.946 817.05m0 71.68A506.88 506.88 0 0 1 93.184 99.072v-165.94a58.163 58.163 0 0 1 58.163-58.162h362.547a506.88 506.88 0 0 1 0 1013.76zM754.688 438.17a56.32 56.32 0 1 1 56.32-56.32 56.32 56.32 0 0 1-56.32 56.32z m-240.742 0a56.32 56.32 0 1 1 56.32-56.32 56.32 56.32 0 0 1-56.32 56.32z m-240.794 0a56.32 56.32 0 1 1 56.32-56.32 56.32 56.32 0 0 1-56.32 56.32z"  horiz-adv-x="1024" />
      
      <glyph glyph-name="xiaoxi1" unicode="&#59142;" d="M932.571 859.429h-768A90.697 90.697 0 0 1 73.143 768v-581.486a91.429 91.429 0 0 1 91.428-95.085H321.83V-40.23000000000002a50.103 50.103 0 0 1 51.2-51.2 65.097 65.097 0 0 1 36.57 14.63l168.229 168.229h351.085a90.697 90.697 0 0 1 91.429 91.428V768a85.577 85.577 0 0 1-87.772 91.429zM661.943 318.16999999999996H266.97a47.543 47.543 0 0 0 0 95.086h394.972a47.543 47.543 0 0 0 0-95.086zM830.17 537.6h-563.2a46.08 46.08 0 0 0-47.542 47.543 48.274 48.274 0 0 0 47.542 47.543h563.2a48.274 48.274 0 0 0 47.543-47.543A46.08 46.08 0 0 0 830.17 537.6z"  horiz-adv-x="1097" />
      
      <glyph glyph-name="xiaoxi" unicode="&#59143;" d="M836.033 107.20000000000005l6-6 117.8-117.8h-235.6l-206.5-0.2h-5.8c-247.4 0-448 179.5-448 400.8s200.6 400.8 448 400.8 448-179.5 448-400.8c0.1-107.4-47.1-204.9-123.9-276.8z m-182.6 206.1c39.1 0 70.7 31.7 70.7 70.7s-31.7 70.7-70.7 70.7c-39.1 0-70.7-31.7-70.7-70.7s31.7-70.7 70.7-70.7z m-282.9 0c39.1 0 70.7 31.7 70.7 70.7s-31.7 70.7-70.7 70.7-70.7-31.7-70.7-70.7 31.6-70.7 70.7-70.7z"  horiz-adv-x="1024" />
      
      <glyph glyph-name="zhongcao" unicode="&#59144;" d="M556.973 348.57500000000005v-123.184c61.717-8.47 118.729-36.67 163.563-81.505a285.502 285.502 0 0 0 84.19-203.195v-59.475H229.93v59.475c0 76.745 29.89 148.923 84.189 203.195a285.226 285.226 0 0 0 163.563 81.505V469.657c-3.736-0.14-8.58-0.25-14.336-0.25-52.611 0-182.991 9.05-269.976 92.132l-0.055-0.055a258.103 258.103 0 0 0-4.207 4.207l0.055 0.027C85.241 674.512 97.142 851.165 97.695 858.748L100.27 892.79 134.31 895.308c7.556 0.554 184.237 12.454 293.002-91.413l0.056 0.028a258.076 258.076 0 0 0 4.206-4.207l-0.055-0.027c55.656-58.285 78.073-136.054 86.819-196.857a290.207 290.207 0 0 0 51.476 75.61l-0.055 0.055 2.076 2.076 2.13 2.13 0.056-0.055c108.766 103.895 285.447 92.022 293.003 91.44l34.04-2.546 2.52-34.04c0.553-7.556 12.453-184.21-91.414-293.003l0.028-0.055a258.076 258.076 0 0 0-4.179-4.18l-0.055 0.028C730.112 365.95500000000004 617.5 350.9 556.945 348.547z m197.05 149.864c55.629 57.482 68.055 146.736 70.408 196.497-49.789-2.38-139.043-14.806-196.498-70.434-55.628-57.483-68.054-146.737-70.407-196.498 49.817 2.38 139.043 14.834 196.498 70.435zM309.249-59.309999999999945H725.49c0 114.743-93.378 208.121-208.12 208.121-114.772 0-208.122-93.378-208.122-208.121z m64.18 805.03C315.89 801.35 226.664 813.803 176.848 816.156c2.38-49.761 14.806-138.988 70.406-196.498 57.455-55.6 146.71-68.026 196.498-70.407-2.353 49.761-14.779 139.015-70.38 196.498z"  horiz-adv-x="1024" />
      
      <glyph glyph-name="remai" unicode="&#59145;" d="M0 896v-1024L1024 896H0z m356.352-129.024l12.288 10.24 18.432-18.432 67.584 65.536 12.288-10.24-67.584-65.536 24.576-24.576 79.872 77.824 8.192-10.24c12.288-18.432 20.48-38.912 28.672-59.392l-14.336-8.192c-6.144 16.384-12.288 34.816-24.576 53.248L335.872 615.424l-12.288 12.288L409.6 711.6800000000001l-24.576 24.576-69.632-67.584-8.192 12.288 69.632 67.584-20.48 18.432z m28.672-143.36l-2.048 14.336c22.528 10.24 45.056 18.432 67.584 24.576l2.048-14.336c-24.576-6.144-47.104-14.336-67.584-24.576z m69.632-4.096l2.048-16.384c-24.576-4.096-49.152-12.288-71.68-22.528l-2.048 14.336c24.576 12.288 49.152 18.432 71.68 24.576z m-268.288-307.2l-14.336 10.24c10.24 8.192 16.384 14.336 20.48 18.432 6.144 6.144 6.144 12.288 0 18.432l-32.768 32.768-30.72-43.008-14.336 8.192c12.288 16.384 22.528 30.72 32.768 47.104l-40.96 40.96-32.768-32.768-10.24 12.288 32.768 32.768-30.72 30.72 12.288 12.288 30.72-30.72 28.672 28.672 12.288-12.288-26.624-30.72 36.864-38.912c6.144 12.288 14.336 22.528 20.48 36.864l12.288-12.288-20.48-36.864 36.864-38.912c12.288-12.288 12.288-22.528 0-34.816l-22.528-18.432z m40.96-61.44c0 22.528-4.096 47.104-12.288 71.68l16.384 6.144c8.192-26.624 14.336-51.2 14.336-75.776l-18.432-2.048z m6.144 206.848c-14.336-2.048-26.624-4.096-36.864-8.192l-4.096 16.384c12.288 2.048 22.528 4.096 32.768 6.144-8.192 16.384-20.48 30.72-36.864 47.104l-28.672-26.624-10.24 14.336 28.672 26.624-30.72 30.72 12.288 12.288 30.72-30.72 45.056 45.056 40.96-43.008c26.624-26.624 47.104-43.008 63.488-49.152 6.144-2.048 10.24-2.048 12.288 0s2.048 6.144-2.048 12.288c-4.096 8.192-12.288 18.432-24.576 32.768l14.336 4.096c16.384-20.48 26.624-34.816 28.672-43.008 2.048-6.144 0-12.288-4.096-16.384-6.144-6.144-14.336-8.192-26.624-6.144-20.48 4.096-47.104 22.528-77.824 53.248l-30.72 30.72-32.768-32.768c18.432-20.48 32.768-38.912 40.96-55.296 18.432 2.048 38.912 4.096 57.344 4.096l4.096-18.432c-18.432 0-36.864 0-53.248-2.048 10.24-26.624 14.336-53.248 12.288-79.872h-16.384c8.192 24.576 4.096 49.152-8.192 75.776z m75.776-143.36c-20.48 12.288-36.864 24.576-55.296 30.72l8.192 14.336c16.384-8.192 34.816-18.432 55.296-30.72l-8.192-14.336z m53.248 51.2c-22.528 12.288-43.008 22.528-61.44 28.672l8.192 14.336c20.48-8.192 43.008-16.384 63.488-28.672l-10.24-14.336z m59.392 59.392c-20.48 6.144-45.056 12.288-75.776 16.384l4.096 16.384c28.672-4.096 53.248-8.192 75.776-14.336l-4.096-18.432z m104.448 167.936c-4.096-30.72-20.48-67.584-49.152-112.64l-16.384 4.096c30.72 45.056 47.104 79.872 51.2 108.544 0 8.192 0 16.384-2.048 24.576l-94.208-90.112-12.288 12.288 98.304 96.256c-4.096 10.24-12.288 22.528-20.48 32.768l-34.816 34.816 12.288 12.288 34.816-34.816c10.24-10.24 16.384-20.48 22.528-30.72l77.824 73.728 10.24-12.288-81.92-79.872c2.048-4.096 2.048-8.192 4.096-14.336 38.912 18.432 79.872 34.816 118.784 45.056l4.096-16.384c-40.96-10.24-81.92-24.576-120.832-43.008l-2.048-10.24z"  horiz-adv-x="1024" />
      
      <glyph glyph-name="jiarugouwuche" unicode="&#59146;" d="M895.693-79.885c-30.776 0-55.918 25.141-55.918 55.918 0 30.92 25.142 55.917 55.918 55.917 30.92 0 56.062-25.14 56.062-55.917s-25.141-55.918-56.062-55.918z m-527.822 0c-30.776 0-55.917 25.141-55.917 55.918 0 30.92 25.141 55.917 55.917 55.917 30.921 0 56.062-25.14 56.062-55.917-0.144-30.777-25.285-55.918-56.062-55.918z m45.804 191.883c-37.712 0-64.154 7.08-82.938 22.396-16.327 13.148-27.164 32.22-36.122 63.575-41.18 142.756-140.589 493.289-166.741 585.907H31.932C14.305 783.876 0 798.325 0 815.953s14.305 31.932 31.932 31.932H151.86c14.304 0 26.875-9.536 30.776-23.263 0.867-3.179 93.774-331.17 149.692-526.521l585.762 83.66c20.517 2.89 31.932 5.49 36.845 11.848 4.768 6.213 4.768 17.05 4.768 36.845V652.968h1.156c3.757 13.871 16.472 23.84 31.065 23.84 17.772 0 32.077-14.448 32.077-32.076 0-1.156-0.144-2.456-0.289-3.757v-210.521c0-35.978-5.346-58.519-18.061-75.28-14.738-19.506-39.59-31.21-78.603-36.7L350.1 235.97c1.878-6.79 3.901-13.582 5.78-20.373 8.958-31.21 11.414-39.735 57.651-39.735h578.104c17.628 0 32.077-14.304 32.077-31.932s-14.304-31.932-32.077-31.932h-577.96zM514.095 453.138c-1.011 0-2.023 0-2.89 0.145h-0.289l-2.6 0.433s-0.29 0.145-0.578 0.145c-1.734 0.433-3.324 0.867-4.913 1.59-0.145 0-0.578 0.144-0.867 0.433l-1.734 0.867c-0.144 0.144-0.578 0.289-0.867 0.433-0.867 0.578-1.734 1.012-2.456 1.59l-0.29 0.144a90.297 90.297 0 0 0-2.022 1.59l-0.578 0.577c-0.578 0.434-1.011 1.012-1.445 1.445l-0.289 0.29c-0.144 0.144-0.289 0.433-0.578 0.577-0.289 0.29-0.578 0.723-0.867 1.012-0.144 0.144-0.289 0.433-0.433 0.578l-0.434 0.578c-0.289 0.289-0.433 0.578-0.578 0.866-0.144 0.29-0.433 0.723-0.578 1.012l-0.144 0.289c-0.145 0.289-0.29 0.578-0.434 0.722-0.289 0.434-0.433 0.723-0.578 1.012l-0.144 0.289-0.434 0.867c-0.433 0.867-0.722 1.59-0.866 2.312 0 0.144-0.145 0.433-0.29 0.722v0.144c-0.144 0.434-0.288 1.012-0.433 1.59 0 0.144-0.144 0.433-0.144 0.722v0.145c-0.145 0.578-0.29 1.011-0.29 1.59l-0.144 0.433c-0.867 5.201-19.94 126.573-20.95 199.83-0.145 7.946 2.889 15.46 8.38 21.095 5.49 5.635 12.86 8.958 20.806 8.958h0.434c16.182 0 29.475-13.148 29.62-29.187 0.433-32.366 5.057-76.724 9.247-111.402 44.07 62.71 90.162 110.102 121.516 139.144 49.705 46.092 87.128 69.789 88.717 70.8 4.768 3.035 10.259 4.624 15.75 4.624 10.258 0 19.65-5.202 25.14-13.871 8.67-13.871 4.48-32.221-9.247-40.89-0.289-0.145-34.822-22.252-80.77-64.877-26.73-24.852-65.742-64.731-104.177-117.326 38.29 13.438 86.983 28.032 123.25 29.62h1.445c15.894 0 28.898-12.425 29.62-28.32 0.723-16.326-11.992-30.197-28.32-31.064-64.153-2.89-187.692-58.663-188.992-59.241-0.578-0.29-1.156-0.434-1.59-0.723l-0.578-0.144c-0.867-0.29-1.589-0.578-2.456-0.723l-0.433-0.144c-1.59-0.434-3.18-0.723-4.769-0.867h-0.433c-0.722 0-1.156 0-1.734-0.145 0.145-0.289 0-0.289-0.289-0.289z"  horiz-adv-x="1024" />
      
      <glyph glyph-name="daipingjia" unicode="&#59147;" d="M930.565 808.325H93.435c-50.536 0-90.73-40.063-90.73-90.73V103.69c0-50.536 40.063-90.73 90.73-90.73h303.483L512-102.121 627.082 12.96h303.483c50.536 0 90.73 40.063 90.73 90.73V717.595c0 50.537-41.896 90.73-90.73 90.73z m20.947-675.045c0-26.185-22.65-48.834-48.834-48.834H592.257L512 2.487l-80.257 81.959h-310.42c-26.186 0-48.835 22.65-48.835 48.834V691.41c0 26.185 22.65 48.835 48.834 48.835h781.356c26.185 0 48.834-22.65 48.834-48.835v-558.13zM787.595 438.595H260.887c-17.412 0-33.123-15.71-33.123-33.123 0-19.246 14.009-33.124 33.123-33.124h526.708c17.413 0 33.124 15.71 33.124 33.124-1.702 17.412-15.71 33.123-33.124 33.123z"  horiz-adv-x="1024" />
      
      <glyph glyph-name="zidingyi" unicode="&#59148;" d="M148.992 248.32l34.816-34.816 113.664 113.664-34.816 34.816L148.992 248.32z m58.88 168.96l-34.816 34.816L59.392 337.92l34.816-34.816L207.872 417.28zM104.448 292.864l34.304-34.304 113.664 113.664-34.304 34.304-113.664-113.664zM74.24 375.808c-3.072 10.24-6.656 19.456-10.752 27.648-3.584 8.192-8.192 15.872-12.8 22.528 4.608 1.536 8.704 3.072 12.288 4.608 3.584 1.536 7.68 4.096 12.288 7.168 2.048 1.536 3.584 1.536 4.608 0.512 1.536-1.024 1.536-2.56 0.512-4.608-0.512-1.536-1.024-3.584-1.024-5.632 0-2.048 0-4.608 0.512-8.192 0.512-3.072 1.536-7.168 2.56-12.288 1.536-4.608 3.072-11.264 5.12-18.432l49.664 49.664c8.192 8.192 15.36 15.872 22.016 23.552 6.656 7.68 12.288 14.336 16.384 19.968 2.56-3.584 6.144-8.192 10.752-13.312 4.608-5.632 9.216-10.24 13.824-15.36L309.76 344.064c6.656-6.656 12.288-12.288 17.92-16.896 5.12-4.608 10.752-9.728 17.408-14.336l-16.384-16.384-20.992 20.992-113.664-113.664 22.528-22.528-15.872-15.872c-4.608 6.144-9.728 12.288-14.848 17.92s-10.752 11.776-17.408 18.432l-110.08 110.08c-2.048 2.048-4.096 4.096-6.656 6.144-2.56 2.048-5.12 4.608-7.68 6.656s-5.12 4.608-7.68 6.656-4.608 3.584-6.656 5.12c3.584 3.072 9.728 8.192 17.92 15.36s16.896 14.848 26.624 24.064z m266.24 163.84c-7.168-7.168-12.8-13.312-18.432-18.432-5.12-5.632-10.24-10.752-14.848-15.36-4.608-4.608-8.704-9.216-12.288-13.312s-7.68-8.704-11.264-12.8l-13.824 13.824 13.824 12.288c4.608 4.096 9.216 8.704 14.336 13.312 5.12 4.608 10.752 10.24 16.896 16.384s13.312 12.8 20.992 20.992l20.992 20.992c6.144 6.144 11.264 11.776 16.384 16.896s9.216 9.728 13.312 14.336l12.288 13.824 13.824-13.824c-4.096-3.584-8.704-7.168-12.8-11.264-4.096-3.584-8.704-7.68-12.8-12.288-4.608-4.096-9.216-9.216-14.848-14.336s-11.264-11.264-17.92-17.92l37.376-37.376 28.16 28.16c7.68 7.68 14.336 14.336 19.456 19.968s9.728 10.24 13.312 14.336c3.584 4.096 7.168 7.68 10.24 11.776L476.672 576c-3.584-3.072-7.68-6.656-11.264-10.24-4.096-3.584-8.704-8.192-14.336-13.824s-12.288-11.776-19.968-19.456l-28.16-28.16 44.032-44.032c6.144 4.608 12.288 9.216 18.432 14.848 6.144 5.12 12.288 11.264 19.456 18.432s14.848 15.36 23.552 25.088c8.704 9.728 18.944 20.992 30.72 34.304 3.072-8.192 6.656-15.36 11.776-21.504-11.264-11.264-21.504-22.016-30.72-30.72-9.216-9.216-17.408-17.408-25.088-24.064-7.68-7.168-14.336-12.8-19.968-17.92-6.144-5.12-11.264-9.216-15.872-12.288-8.704-6.656-17.408-11.776-25.088-15.872s-15.872-7.68-23.552-9.728c-7.68-2.56-15.36-3.584-23.04-4.096s-16.384 0-25.088 1.024c4.096-12.8 7.168-25.6 8.704-38.4 2.048-12.8 2.56-26.112 2.048-38.912-4.608 0.512-8.192 0.512-11.776 0-3.584-0.512-7.68-2.048-12.288-4.096 4.608 22.528 4.096 45.568-1.024 68.096-5.632 22.528-16.896 44.032-33.792 64 4.608 2.048 8.192 4.096 10.752 5.632 3.072 2.048 5.632 4.096 8.704 6.144 2.56 2.048 4.608 3.072 5.632 2.56s1.536-2.56 0.512-5.632c-0.512-2.048 0-5.12 1.024-9.216s3.072-9.728 6.656-16.896c3.072-5.632 5.632-10.752 7.68-15.872 7.68-1.536 14.848-2.048 22.016-1.536 7.168 0.512 14.336 1.536 20.992 3.072 6.656 1.536 12.8 3.584 17.92 6.144 5.632 2.56 10.24 5.12 14.336 7.68l-90.112 89.088z m-39.936 71.168c19.968 20.48 35.84 36.864 48.128 49.152 11.776 12.288 20.992 22.528 27.136 29.696l45.056-45.056-13.312-13.312-31.744 31.744-150.016-148.992 32.256-32.256-12.8-12.8-45.568 45.056c3.584 3.072 8.192 7.168 12.8 11.264 4.608 4.096 10.752 9.728 17.408 15.872 6.656 6.656 14.336 13.824 23.552 23.04 9.216 8.704 19.456 19.456 32.256 31.744-6.656 2.048-12.8 3.584-19.456 4.096-6.656 1.024-12.8 1.024-19.968 1.024l7.68 22.528c6.144-0.512 13.312-2.048 21.504-4.096s16.384-5.12 25.088-8.704z m273.408 92.672c-1.024 24.576-5.632 50.176-12.8 75.776-7.168 26.112-17.92 52.736-32.256 80.896 3.584 0.512 6.144 1.024 8.704 1.536 2.048 0.512 4.608 1.024 6.144 1.536 2.048 0.512 3.584 1.536 5.12 2.048s3.072 2.048 5.12 3.072c2.048 1.536 4.096 1.024 6.144-0.512s2.048-3.584 1.024-6.656c-0.512-1.536-1.024-3.584-1.024-6.656s0.512-6.144 1.024-9.728 1.536-7.68 2.56-11.264c1.024-4.096 2.56-8.192 4.096-12.288 2.048-6.144 4.608-13.312 6.656-20.992 2.56-7.68 4.608-15.36 6.656-23.552s4.096-16.384 5.632-24.064c1.536-8.192 3.072-15.872 4.096-23.552 0.512-4.608 1.024-9.216 1.536-13.312s0.512-8.704 1.024-12.8c25.088 1.024 49.152 4.096 72.704 9.728 23.552 5.632 47.104 13.824 70.656 25.6-4.608-12.288-3.584-23.552 1.536-33.28-14.336-4.608-28.16-8.704-40.96-11.776-13.312-3.072-25.6-5.12-37.888-6.656-11.776-1.536-23.552-2.56-34.304-3.072-10.752-0.512-21.504-0.512-31.232-0.512 0-16.384-0.512-31.232-2.048-44.544-1.024-13.312-3.072-26.112-5.632-37.888-2.56-11.776-5.632-23.04-9.216-33.792-3.584-10.752-7.68-22.016-12.288-33.792-4.096 1.536-8.192 3.072-11.264 3.072-3.584 0.512-8.192 0-14.336-1.536 11.264 23.552 19.968 47.616 26.624 72.192 6.656 24.576 9.728 50.176 10.24 76.8-14.336 0.512-27.136 1.024-39.424 2.048a470.487 470.487 0 0 0-36.352 4.608c-12.288 2.048-25.6 5.12-39.424 8.704s-30.208 8.192-48.64 13.824c1.536 3.072 3.072 6.144 4.096 9.728 1.024 3.584 1.536 6.656 1.024 9.216 11.264-4.608 23.04-8.704 34.816-12.288 11.776-3.072 23.04-6.144 34.304-8.192 11.264-2.048 21.504-4.096 31.744-5.12 10.24-1.024 18.944-2.048 27.136-2.56 5.12-0.512 9.728-0.512 14.848-0.512 3.584 0.512 8.704 0.512 13.824 0.512z m-65.024 73.216c-6.144 1.536-11.776 2.56-16.896 4.096-5.12 1.024-10.24 2.048-15.36 2.56-5.12 0.512-10.24 1.024-16.384 1.536-5.632 0.512-12.288 0.512-19.456 1.024l3.072 17.92c12.288 0 24.064-0.512 34.816-1.536 10.752-1.024 22.528-3.072 34.304-5.632l-4.096-19.968z"  horiz-adv-x="1024" />
      
      <glyph glyph-name="shouhou1" unicode="&#59149;" d="M510.362 758.784c-156.519 0-283.392-124.314-283.392-277.504s126.873-277.453 283.392-277.453 283.34 124.263 283.34 277.504c0.154 153.19-126.668 277.453-283.34 277.453zM183.194 374.88599999999997V630.938c-3.533 0-7.168-0.154-10.65-0.41 58.01 126.054 187.34 213.862 337.92 213.862 150.528 0 279.86-87.808 338.022-213.862a138.65 138.65 0 0 1-10.7 0.41v-256.052c72.294 0 130.867 57.344 130.867 128.103a127.642 127.642 0 0 1-67.072 111.77C845.466 773.324 691.866 887.141 510.464 887.141c-181.3 0-334.848-113.766-391.27-272.384a127.488 127.488 0 0 1-67.072-111.77c0.153-70.758 58.726-128.102 131.123-128.102zM793.19 227.942a418.15 418.15 0 0 0-282.828-109.056 417.792 417.792 0 0 0-282.42 108.8C95.437 161.024 8.5 42.291000000000054 8.5-119.19399999999996h1007.104c0.051 161.588-88.576 280.474-222.413 347.136z"  horiz-adv-x="1024" />
      
      <glyph glyph-name="fankui" unicode="&#59150;" d="M986.47-125.798H36.25a36.198 36.198 0 1 0 0 72.396h950.272a36.198 36.198 0 1 0 0-72.396z m-882.33 359.27l-6.809-148.89 148.89 6.81 527.616 528.077-142.08 142.08L104.14 233.472zM61.134 14.899a33.946 33.946 0 0 0-33.946 35.328l9.063 199.527a34.406 34.406 0 0 0 9.932 22.17L607.795 834.815a32.154 32.154 0 0 0 23.962 9.984 32.154 32.154 0 0 0 23.961-9.984l190.055-190.054a33.485 33.485 0 0 0 0-47.924l-560.64-562.944a33.485 33.485 0 0 0-22.17-9.932l-199.117-9.063h-2.713z"  horiz-adv-x="1024" />
      
      <glyph glyph-name="evaluation" unicode="&#59151;" d="M879 803c58.013 0 105-46.264 105-103.29v-542.433c0-57.09-46.987-103.355-105-103.355H681.01c-28.876 0-56.438-11.68-76.257-32.286l-31.106-32.286c-32.76-33.815-86.534-35.273-121.078-3.28l-3.281 3.28-31.041 32.286a105.79 105.79 0 0 1-76.256 32.286H144c-58.013 0-105 46.264-105 103.355V699.711C39 756.802 85.987 803 144 803h735z m13.55-64.747h-761.6c-15.3 0-27.2-11.742-27.2-25.532v-564.314c0-13.86 11.9-25.601 27.2-25.601h205.156c52.02 0 101.796-21.164 137.768-58.712l32.504-33.793a8.136 8.136 0 0 1 11.016 0.205l32.232 33.656c36.081 37.525 85.817 58.696 137.768 58.644H892.55c15.3 0 27.2 11.742 27.2 25.6V712.722c0 13.79-11.9 25.532-27.2 25.532z m-617.3-250.24a52.496 52.496 0 1 0 0-104.996c-28.992 0.005-52.493 23.508-52.493 52.499 0 28.99 23.5 52.494 52.493 52.497z m236.25 0a52.496 52.496 0 1 0 0-104.996c-28.992 0.005-52.493 23.508-52.493 52.499 0 28.99 23.5 52.494 52.493 52.497z m236.25 0a52.496 52.496 0 1 0 0-104.996c-28.992 0.005-52.493 23.508-52.493 52.499 0 28.99 23.5 52.494 52.493 52.497z"  horiz-adv-x="1170" />
      
      <glyph glyph-name="kefu2" unicode="&#59152;" d="M609.524 792.478c-222.89 0-403.712-178.472-403.712-398.78 0-220.31 180.823-398.782 403.712-398.782 222.889 0 403.712 178.473 403.712 398.781 0 220.309-180.823 398.781-403.712 398.781v-48.762c196.1 0 354.95-156.785 354.95-350.019s-158.85-350.019-354.95-350.019-354.95 156.785-354.95 350.02c0 193.233 158.85 350.018 354.95 350.018v48.762zM786.578-20.340000000000032c166.45 69.217 278.408 231.055 278.408 414.035 0 248.026-203.847 449.219-455.457 449.219-251.619 0-455.457-201.188-455.457-449.22 0-55.397 10.152-109.367 29.718-159.975 4.855-12.56-1.39-26.677-13.949-31.533-12.56-4.855-26.677 1.39-31.532 13.949a490.396 490.396 0 0 0-3.042 8.078c-1.85-0.077-3.711-0.116-5.581-0.116C58.06 224.09699999999998 0 281.403 0 352.097c0 65.005 49.09 118.69 112.68 126.91C153.65 713.44 360.56 891.676 609.528 891.676c248.962 0 455.877-178.24 496.85-412.67 63.583-8.225 112.669-61.907 112.669-126.909 0-70.694-58.06-128-129.686-128-1.89 0-3.771 0.04-5.642 0.119-47.536-129.702-148.34-235.841-279.493-290.027-1.161-33.464-29.012-60.24-63.2-60.24-34.925 0-63.237 27.944-63.237 62.416 0 34.471 28.312 62.415 63.237 62.415 17.892 0 34.048-7.333 45.551-19.12zM609.528 284.595c-58.933 0-112.056 10.644-158.472 28.342-16.123 6.147-30.211 12.702-42.138 19.208-6.926 3.777-11.447 6.59-13.437 7.972-19.24 13.373-44.428-5.446-37.059-27.688 35.296-106.527 136.054-179.913 251.106-179.913 115.05 0 215.796 73.384 251.092 179.913 7.37 22.243-17.82 41.062-37.06 27.687-1.99-1.383-6.51-4.195-13.434-7.972-11.926-6.505-26.012-13.06-42.133-19.207-46.413-17.698-99.533-28.342-158.465-28.342z"  horiz-adv-x="1220" />
      
      <glyph glyph-name="kefu" unicode="&#59153;" d="M830.976 718.848C745.984 801.28 634.368 845.824 515.584 843.776 287.744 839.168 98.304 658.432 84.48 432.128c-5.12-82.432 12.288-163.84 51.2-236.544L92.16-8.70399999999995v-3.072c0-17.92 14.336-32.256 32.256-32.256h4.096l196.096 55.296c66.56-33.792 141.312-50.176 216.064-47.616 114.688 4.096 221.696 52.736 301.056 136.192 79.872 83.456 122.88 192.512 121.856 307.2 0 118.784-47.616 229.376-132.608 311.808z m-291.84-693.76c-66.048-2.048-132.096 12.8-190.464 43.008-1.536 1.024-2.56 1.536-3.584 2.048l-10.752 7.168-170.496-48.128 35.84 167.424V207.36l-3.072 6.656c-1.024 2.048-2.048 4.096-3.584 6.144l-1.536 3.072-0.512 0.512c-33.28 62.464-48.64 132.608-44.032 203.776 11.776 194.56 174.592 350.208 370.688 354.304 101.888 2.048 198.144-36.352 271.36-107.52 73.216-71.168 113.664-166.4 114.688-268.288 1.536-202.24-161.792-373.248-364.544-380.928zM713.728 374.27200000000005c-15.36 0-28.16-11.264-30.208-26.112h-0.512c-4.608-84.48-74.24-150.528-158.72-150.528S370.176 263.67999999999995 365.568 348.15999999999997c-0.512 16.384-13.824 29.184-30.208 29.184-16.896 0-30.208-13.824-30.208-30.208v-2.048c6.144-116.736 102.912-208.384 219.648-208.384 113.664 0 208.384 87.04 218.624 199.168 0.512 2.56 0.512 5.632 0.512 8.192 0 16.896-13.824 30.208-30.208 30.208z"  horiz-adv-x="1024" />
      
      <glyph glyph-name="coupon" unicode="&#59154;" d="M885.388199 630.698436a39.813915 39.813915 0 0 1-56.265574-0.355927 65.59268 65.59268 0 0 0-45.50076-19.707998 60.630687 60.630687 0 0 0-44.080048 17.376471 63.303145 63.303145 0 0 0 1.223751 89.508823 39.642949 39.642949 0 0 1-0.355928 56.151597L634.036242 878.523109A62.29435 62.29435 0 0 1 581.425926 895.301702a77.551251 77.551251 0 0 1-44.406982-22.622406L22.670396 352.812868A77.294303 77.294303 0 0 1 0.587881 308.264915a62.009407 62.009407 0 0 1 17.475451-52.241391l106.373398-104.851707a39.813915 39.813915 0 0 1 56.264574 0.354928 62.137381 62.137381 0 1 0 88.443039-87.1623 39.642949 39.642949 0 0 1 0.355928-56.152596l120.464536-118.728889a62.29435 62.29435 0 0 1 52.610317-16.778593 75.517664 75.517664 0 0 1 31.922517 12.299502 81.133524 81.133524 0 0 1 12.427476 10.29391l514.348548 519.880424a77.294303 77.294303 0 0 1 22.082516 44.548954 62.009407 62.009407 0 0 1-17.475451 52.240391zM703.952044 401.072068L494.929492 192.39244599999995a39.813915 39.813915 0 1 0-56.265574 56.151597l209.021553 208.680622a39.813915 39.813915 0 0 0 56.265573-56.151597zM559.485382 545.240791L350.463829 336.560169a39.813915 39.813915 0 0 0-56.264574 56.151597l209.020553 208.680622a39.813915 39.813915 0 0 0 56.265574-56.151597z"  horiz-adv-x="1024" />
      
      <glyph glyph-name="coupons" unicode="&#59155;" d="M1034.914585 497.989144L948.428703 603.019001a97.579867 97.579867 0 1 0-121.912833 147.955797L737.798991 858.658651a103.132859 103.132859 0 0 1-144.795802 13.969981L196.337732 545.775079 178.982755 532.2990970000001l0.372-0.482999L37.335949 414.799258a103.157859 103.157859 0 0 1-13.919981-144.795802l89.137878-108.189852a97.591867 97.591867 0 1 0 118.900838-144.299803l89.125878-108.178852a103.157859 103.157859 0 0 1 144.745802-13.981981l144.683802 119.209837 17.354976 13.486982-0.371999 0.483999L1021.018604 353.179342a103.169859 103.169859 0 0 1 13.895981 144.808802z m-41.897943-110.855848L437.361402-70.69407799999999a58.073921 58.073921 0 0 0-37.298949-13.325982 58.81792 58.81792 0 0 0-45.591938 21.320971l-59.089919 71.734902A141.609806 141.609806 0 0 1 116.382841 226.209516l-59.127919 71.759902a59.189919 59.189919 0 0 0 8.007989 82.889886L620.969151 838.688678a58.073921 58.073921 0 0 0 37.299949 13.325982A58.78092 58.78092 0 0 0 703.859038 830.678689l61.160916-74.225898a141.584806 141.584806 0 0 1 177.049758-214.893706l58.954919-71.548903a58.941919 58.941919 0 0 0-8.007989-82.877886zM323.629558 346.579351l34.699952 27.023963 41.462943-53.242927-34.699952-27.022963z m-82.914887 106.482855l34.699952 27.022963 41.461944-53.241928-34.699953-27.022963z m165.830773-212.965709l34.698953 27.022963 41.463943-53.242927-34.699953-27.022963zM489.431331 133.499642l34.704952 27.016964 41.452944-53.249928-34.703953-27.016963z"  horiz-adv-x="1058" />
      
      <glyph glyph-name="kefu1" unicode="&#59156;" d="M551.167-61.91899999999998h-80.964c-40.496 0-72.909 32.386-72.909 75.585 0 40.496 32.413 75.585 72.909 75.585h80.964c16.22 0 32.413-5.407 43.2-16.193C742.832 113.55399999999997 850.83 251.207 850.83 413.19c0 194.369-151.17 350.918-340.132 350.918-188.962 0-340.16-156.55-340.16-350.918 0-45.875 8.11-91.778 27.034-134.977l2.676-5.407-2.703-2.703h-59.392l-10.786 2.73c-59.392 13.49-99.888 64.745-99.888 126.84 0 56.689 35.09 107.97 89.074 124.164 32.44 172.796 205.183 305.07 394.145 305.07S872.43 696.633 907.519 521.1600000000001c51.282-16.193 89.075-67.475 89.075-124.164 0-59.392-40.496-110.674-97.185-126.894-37.792-134.977-145.763-237.568-278.036-267.25-2.731-37.793-35.09-64.772-70.178-64.772h-0.028zM510.699 159.42999999999995c-97.212 0-183.583 62.094-213.265 153.872-5.407 13.49 2.703 27.006 16.193 32.386 13.49 5.407 27.006-2.676 32.385-16.193 24.303-70.178 91.778-118.784 167.39-118.784 75.558 0 143.06 48.606 167.363 118.784 5.38 13.517 18.896 18.896 32.385 16.193 13.49-5.38 18.897-18.896 16.193-32.386C691.551 221.524 607.856 159.42999999999995 510.7 159.42999999999995z"  horiz-adv-x="1024" />
      
      <glyph glyph-name="xinpin" unicode="&#59157;" d="M508.581 652.363l46.955 46.955 46.128-46.128-46.954-46.955zM413.06 556.86l44.485 44.476 46.129-46.128-44.476-44.476z m0 0M0 895.96V-128L1025.584 895.96z m440.25-112.61q13.989-15.67 32.956-34.569 18.13-18.13 32.965-31.303L393.344 604.6410000000001a405.76 405.76 0 0 1-31.312 34.56 406.29 406.29 0 0 1-34.57 31.313zM93.683 416.666q14.825 13.172 27.998 26.345l14.825 14.825a199.505 199.505 0 0 1-23.896 14.018q5.765 10.674 12.366 22.243 21.397-13.173 28.814-18.937 18.938 18.937 34.57 36.26l16.487-16.467q-18.337-16.36-28.971-27.073l-39.488-39.527q-14.029-14.019-26.355-28.008z m46.777 6.109a300.645 300.645 0 0 0 32.956-13.173 86.718 86.718 0 0 1-9.06-18.937 242.535 242.535 0 0 1-31.323 13.153 103.727 103.727 0 0 0 7.427 18.957z m89.768-158.985a231.763 231.763 0 0 1-12.366 66.728 158.729 158.729 0 0 1 26.355 4.919q0.846-10.723 2.902-25.951t5.362-43.394a99.753 99.753 0 0 1-22.282-2.499z m78.7 34.048a61.258 61.258 0 0 0-16.123-24.171 128.577 128.577 0 0 1-26.355 9.838 107.23 107.23 0 0 1 16.114 16.143c2.46 3.541 1.525 7.536-2.951 12.09l-45.253 44.968q-26.355-26.355-40.334-41.987l-16.478 16.478q16.488 14.756 41.987 40.334l-20.59 20.55q-30.497-30.496-44.328-46.138l-16.665 16.36q15.632 13.99 28.814 27.201l31.313 31.303q-13.182 26.345-20.59 40.334 8.067 4.919 23.05 13.173-2.46-9.07 12.336-38.721 13.989 13.989 28.204 29.66l16.478-16.478q-14.835-13.212-42.872-41.219l20.659-20.59q25.43 25.745 39.566 41.377l16.478-16.478q-15.632-14.028-41.18-39.527l50.25-50.33q12.13-12.09 8.46-24.17z m9.464 52.385a203.873 203.873 0 0 1-46.167 11.559 143.746 143.746 0 0 0 3.305 21.397 414.918 414.918 0 0 0 45.45-9.307 51.844 51.844 0 0 1-2.617-23.61zM417.2 394.54q-14.825 16.478-27.997 29.65l-85.666 85.705-26.482-26.345q20.59-20.59 37.874-41.18a278.216 278.216 0 0 0 30.595-44.357 275.54 275.54 0 0 0 22.243-54.363 162.093 162.093 0 0 1-24.702-8.057 174.066 174.066 0 0 1-21.436 58.386 273.11 273.11 0 0 1-30.497 42.508q-14.835 16.557-46.344 47.87-32.238 32.237-51.893 50.25a346.596 346.596 0 0 1 55.523 78.258 144.976 144.976 0 0 1 28.804-7.418q-12.287-12.366-56.074-65.843l42.006-42.065 42.833 42.833q9.06 9.07 18.13 19.783l15.632-15.632q-12.365-10.723-20.59-18.937l84.82-84.859q14.028-13.94 30.496-28.853z m114.48 132.61l-13.251 13.222-44.328-44.328 14.018-14.019-15.632-15.514q-13.34 14.668-43.796 45.007-31.146 31.48-46.099 44.604l75.75 75.591a507.066 507.066 0 0 1 37.874-41.18q24.702-24.702 51.057-47.751z m84.82 111.164l-46.945-46.905 14.038-14.009-15.632-15.632q-13.261 14.826-43.728 45.332t-46.099 44.328l78.248 78.277q13.98-15.632 44.328-46.138 29.66-29.66 42.833-41.18l-15.681-15.661z m0 0M357.85 672.963l80.718 80.727 37.894-37.894-80.717-80.727z m0 0"  horiz-adv-x="1025" />
      
      <glyph glyph-name="yucunkuan" unicode="&#59158;" d="M313.855113 843.549639l6.391932-12.782863 70.30925-83.093114H620.658841l70.30925 83.093114 6.392932 12.783863v6.390932c0 12.783864-6.391932 25.567727-19.175795 25.567728 0 0-89.485046 19.174796-172.57816 19.174795-83.093114 6.391932-172.57816-12.782864-172.578159-12.782864-12.782864-6.391932-19.174796-19.175796-19.174796-31.959659v-6.390932z m313.19666-153.402364H396.948227C211.586204 626.229957 64.574771 415.300206 64.574771 223.548251 64.574771-12.948227 198.80334-128 512-128s447.425229 115.051773 447.425229 351.548251c0 191.752955-147.011432 402.681706-332.373456 466.599024z m76.701182-370.723046H575.917318v-63.917319h127.835637v-63.918318H575.917318v-127.835637H448.082682V191.588592H320.247045v63.918318h127.835637v63.917319H320.247045v63.918318h127.835637l-95.876978 102.268909 44.742523 44.741523L512 408.909274l115.051773 115.051773 44.742523-44.742522-95.876978-95.875978h127.835637v-63.918318z"  horiz-adv-x="1024" />
      
      <glyph glyph-name="youhuiquan" unicode="&#59159;" d="M46.545 506.228c0 29.138 21.039 52.783 47.011 52.783h135.448v-593.92H93.556c-25.972 0-47.01 23.645-47.01 52.782V216.436c34.815 0 63.022 31.651 63.022 70.75s-28.207 70.749-63.023 70.749V506.228z m821.528 32.908c0-31.65-41.426-34.118-41.426-67.63 0-33.513 41.426-21.086 41.426-63.302s-41.426-27.323-41.426-73.216c0-45.336 41.426-27.323 41.426-72.611 0-45.336-41.426-23.599-41.426-67.677 0-44.684 41.426-28.533 41.426-67.63 0-45.941-41.426-27.277-41.426-70.145 0-41.565 34.258-27.136 34.258-65.769 0-12.474-5.818-22.155-8.565-26.065H295.33V559.01h561.34c2.56-2.327 11.403-10.845 11.403-19.875zM1024 559.011c0-42.217-41.425-27.322-41.425-73.216 0-45.335 41.425-27.322 41.425-72.611 0-45.335-41.425-23.599-41.425-67.677 0-44.684 41.425-28.532 41.425-67.63 0-45.941-41.425-27.276-41.425-70.098 0-41.612 34.257-27.183 34.257-65.815 0-12.475-5.818-22.156-8.564-26.066H906.333c2.002 38.82 41.379 22.249 41.379 67.026 0 39.098-41.472 22.993-41.472 67.63 0 44.079 41.425 22.342 41.425 67.677 0 45.289-41.425 27.276-41.425 72.611 0 45.894 41.425 31 41.425 73.216 0 42.217-41.425 29.79-41.425 63.302 0 33.513 41.425 35.98 41.425 67.63 0 9.03-8.843 17.595-11.403 19.875H451.258v94.953h561.338c2.56-2.327 11.404-10.845 11.404-19.875 0-31.65-41.425-34.118-41.425-67.63 0-33.513 41.425-21.085 41.425-63.302zM384.93 709.818v-94.953H202.474v42.17c0 29.138 21.038 52.783 47.01 52.783h135.448zM653.08 398.43a11.404 11.404 0 0 1-1.583 14.708l-25.135 22.11c-4.003 3.537-9.914 2.792-13.08-1.816l-74.006-103.656L465.36 433.43c-3.211 4.562-9.076 5.353-13.125 1.816l-25.135-22.11a11.404 11.404 0 0 1-1.582-14.754l71.354-100.027H435.2c-5.167 0-9.402-4.7-9.402-10.565v-35.98c0-5.818 4.189-10.566 9.402-10.566h75.45v-29.789h-75.403c-5.214 0-9.45-4.701-9.45-10.52v-36.025c0-5.819 4.19-10.52 9.403-10.52h75.45v-54.551c0-6.75 4.887-12.195 10.845-12.195h36.957c5.958 0 10.845 5.446 10.845 12.195v54.551h67.678c5.213 0 9.402 4.701 9.402 10.52v36.026c0 5.818-4.19 10.519-9.402 10.519h-67.678v29.79h67.678c5.213 0 9.402 4.747 9.402 10.565v35.98c0 5.864-4.19 10.565-9.402 10.565h-55.25L653.08 398.43z"  horiz-adv-x="1024" />
      
      <glyph glyph-name="qian" unicode="&#59160;" d="M529.408 405.094c-50.108 21.129-93.389 39.356-93.389 79.565 0 32.222 30.14 66.492 85.948 66.492 52.668 0 93.662-35.84 94.106-36.181l4.369-3.926 28.296 42.462-2.833 2.97c-1.468 1.536-36.215 37.24-102.639 42.257v58.334h-45.943v-58.573c-65.195-8.602-113.8-58.266-113.8-117.214 0-71.543 64.852-98.918 122.094-123.085 50.893-21.47 98.953-41.745 98.953-88.542 0-39.116-33.963-66.457-82.603-66.457-65.092 0-109.636 45.67-110.08 46.148l-3.96 4.13-32.46-38.468 2.935-3.345c1.74-1.98 42.906-47.582 122.266-52.736v-58.266h45.943v55.16c68.267 8.396 113.8 55.023 113.8 117.384-1.877 77.517-70.485 106.428-131.003 131.891M512-93.867C248.081-93.867 34.133 120.081 34.133 384S248.081 861.867 512 861.867 989.867 647.919 989.867 384 775.919-93.867 512-93.867z m0 68.267c226.202 0 409.6 183.398 409.6 409.6S738.202 793.6 512 793.6 102.4 610.202 102.4 384 285.798-25.6 512-25.6z"  horiz-adv-x="1024" />
      
      <glyph glyph-name="zhongping" unicode="&#59161;" d="M512.032 832C264.576 832 64 631.424 64 384s200.576-448 448.032-448S960 136.608 960 384 759.488 832 512.032 832zM344.448 553.92a60.48 60.48 0 1 0-0.064-120.896 60.48 60.48 0 0 0 0.064 120.896zM736 208H288v48h448v-48z m-58.72 225.056a60.416 60.416 0 1 0-0.096 120.864 60.416 60.416 0 0 0 0.096-120.864z"  horiz-adv-x="1024" />
      
      <glyph glyph-name="shouhou" unicode="&#59162;" d="M834.99 787.508H663.48c-9.427 0-18.068-4.975-22.782-13.223a26.256 26.256 0 0 1 0-26.316c4.714-8.117 13.355-13.092 22.781-13.223h171.51c47.265 0 85.625-38.492 85.756-85.755v-635.9c0-47.263-38.491-85.624-85.755-85.754H187.832c-47.264 0-85.625 38.491-85.756 85.755v636.03c0 47.263 38.492 85.624 85.756 85.755h283.843l-59.308-59.309c-4.975-4.975-7.725-11.521-7.725-18.591s2.75-13.616 7.725-18.591c4.975-4.975 11.521-7.725 18.59-7.725s13.617 2.75 18.592 7.725l102.252 102.251c4.975 4.976 7.724 11.653 7.724 18.592 0 7.07-2.749 13.616-7.724 18.59L443.919 885.702c-4.975 4.976-11.652 7.725-18.59 7.725-2.357 0-4.583-0.262-6.809-0.917a26.626 26.626 0 0 1-18.591-18.59c-2.488-9.035 0.13-18.854 6.808-25.4l61.01-61.01H187.833c-76.198-0.132-138.256-62.19-138.387-138.388v-635.898c0.13-76.198 62.189-138.256 138.387-138.387H834.99c76.198 0.13 138.256 62.189 138.387 138.387V649.12c-0.131 76.198-62.19 138.387-138.387 138.387zM694.77 525.66c0 6.939-2.75 13.747-7.724 18.591-4.976 4.975-11.653 7.725-18.592 7.725-6.939 0-13.616-2.75-18.59-7.725L512.13 406.52 374.268 544.251c-4.975 4.975-11.652 7.725-18.591 7.725-2.357 0-4.583-0.262-6.809-0.917-9.033-2.356-16.234-9.557-18.59-18.591-2.357-9.034 0.13-18.722 6.807-25.4l111.417-111.416h-92.825c-14.533 0-26.316-11.783-26.316-26.316 0-14.532 11.783-26.315 26.316-26.315h130.138v-80.388H355.807c-14.532 0-26.315-11.783-26.315-26.315 0-14.533 11.783-26.316 26.315-26.316h130.008V83.79c0-14.533 11.783-26.316 26.316-26.316s26.316 11.783 26.316 26.316V209.87h119.926c14.533 0 26.316 11.783 26.316 26.316 0 14.532-11.783 26.315-26.316 26.315H538.447V342.89h119.926c9.427 0 18.068 5.106 22.781 13.223a26.256 26.256 0 0 1 0 26.316c-4.713 8.117-13.354 13.092-22.78 13.223h-82.745L687.046 507.07c4.975 4.844 7.724 11.521 7.724 18.59z"  horiz-adv-x="1024" />
      
      <glyph glyph-name="fenxiao2" unicode="&#59163;" d="M1314.039 117.28599999999994c-51.959 144.024-199.965 250.121-377.363 260.172V483.65c92.918 13.938 164.503 97.375 164.503 198.353 0 110.933-85.902 200.723-191.905 200.723-105.908-0.095-191.81-89.79-191.81-200.628 0-101.073 71.49-184.32 164.314-198.353v-106.192c-177.304-10.05-325.5-116.243-377.363-260.362-46.08-15.36-79.834-59.923-79.834-113.304 0-65.99 51.105-119.466 114.157-119.466S652.99-62.10400000000004 652.99 3.7930000000000064c0 61.534-44.658 111.597-101.737 118.139 52.054 117.76 179.2 203.378 330.714 212.67v-215.135c-49.777-12.895-86.755-59.544-86.755-115.58 0-65.896 51.105-119.371 114.157-119.371s114.157 53.475 114.157 119.371c0 56.036-37.073 102.685-86.756 115.58v215.04c151.514-9.292 278.756-94.91 330.714-212.765-56.888-6.826-101.167-56.699-101.167-118.044 0-65.897 51.105-119.372 114.157-119.372s114.157 53.475 114.157 119.372c-0.095 53.665-34.133 98.418-80.592 113.588z m0 0"  horiz-adv-x="1820" />
      
      <glyph glyph-name="kaquan" unicode="&#59164;" d="M863.763 468.954c9.86 1.612 17.067 10.145 17.067 20.1v93.488c0 62.483-51.106 113.588-113.589 113.588H256.76c-62.483 0-113.589-51.105-113.589-113.588v-92.823c0-10.715 6.922-20.196 17.067-23.515 39.727-5.594 67.887-42.477 67.887-82.204s-28.16-76.61-67.887-84.954c-9.86-1.612-17.067-10.145-17.067-20.1v-93.488c0-62.483 51.106-113.588 113.589-113.588h510.577c62.483 0 113.588 51.105 113.588 113.588v96.237c0 9.955-7.205 18.489-17.066 20.1C824.13 307.39 795.97 344.274 795.97 384s28.066 76.61 67.793 84.954zM828.397 268.61v-76.894c0-38.021-30.815-68.836-68.836-68.836H265.197c-38.02 0-68.836 30.815-68.836 68.836V268.61c49.21 16.498 81.92 63.052 81.92 115.39 0 48.071-27.685 91.307-70.731 110.839-7.017 3.223-11.568 10.24-11.568 17.92v63.525c0 38.021 30.815 68.836 68.836 68.836h494.838c38.021 0 68.836-30.815 68.836-68.836v-76.894c-49.304-16.593-82.3-63.147-82.3-115.39s32.617-98.797 82.205-115.39zM449.707 468.954h127.43c11.473 0 22.662-8.344 22.662-22.66 0-11.473-8.344-22.661-22.661-22.661H449.707c-11.473 0-22.661 8.343-22.661 22.66s8.344 22.661 22.66 22.661z m0-127.431h127.43c11.473 0 22.662-8.344 22.662-22.66 0-11.473-8.344-22.662-22.661-22.662H449.707c-11.473 0-22.661 8.344-22.661 22.661s8.344 22.661 22.66 22.661z"  horiz-adv-x="1024" />
      
      <glyph glyph-name="haoping" unicode="&#59165;" d="M512-127.334C230.246-127.334 0 102.246 0 384 0 666.47 229.53 896 512 896s512-229.53 512-512c0-281.754-229.53-511.334-512-511.334z m0 207.564a345.805 345.805 0 0 1 262.502 121.652 31.078 31.078 0 0 1-3.43 44.646 31.027 31.027 0 0 1-44.646-3.43 280.166 280.166 0 0 0-427.52 0c-11.623 13.056-32.256 15.155-45.312 3.43a32.46 32.46 0 0 1-3.43-45.312A342.682 342.682 0 0 1 512 80.23zM349.184 386.765c28.16 0 51.558 23.347 51.558 51.507v70.144c0 28.16-23.398 51.507-51.558 51.507s-51.558-23.347-51.558-51.507v-70.144c0-28.16 23.398-51.507 51.558-51.507z m325.734 0c28.877 0 51.559 23.347 51.559 51.507v70.144c0 28.16-23.347 51.507-51.559 51.507-28.16 0-51.507-23.347-51.507-51.507v-70.144c0-28.16 23.347-51.507 51.507-51.507z"  horiz-adv-x="1024" />
      
      <glyph glyph-name="fenxiao" unicode="&#59166;" d="M492.366803 481.569756v-42.751983a491.202803 491.202803 0 0 1-423.149831-317.580873 132.034947 132.034947 0 1 1 88.700965 13.959995 418.205833 418.205833 0 0 0 334.448866 227.715908v-230.914907a132.615947 132.615947 0 1 1 75.61397 0V362.912803A417.915833 417.915833 0 0 0 902.429639 134.905895a132.324947 132.324947 0 1 1 88.701964-13.668995 492.657803 492.657803 0 0 1-423.14983 317.579873V481.569756M189.907924 4.906947a58.164977 58.164977 0 1 0-56.710977 56.709977 56.709977 56.709977 0 0 0 56.129977-56.709977z m397.556841 0a58.164977 58.164977 0 1 0-58.164977 56.709977 56.709977 56.709977 0 0 0 58.164977-56.709977z m340.846863-58.164977a58.164977 58.164977 0 1 0 58.164977 58.164977 58.164977 58.164977 0 0 0-58.164977-58.164977zM530.173788 895.99459a208.229917 208.229917 0 0 1-37.806985-413.262835h75.61397A208.229917 208.229917 0 0 1 530.173788 895.99459z m0-340.846864A132.615947 132.615947 0 1 0 662.789735 687.763673a132.615947 132.615947 0 0 0-132.615947-133.779946z"  horiz-adv-x="1060" />
      
      <glyph glyph-name="lujing" unicode="&#59167;" d="M955.346981 794.151982h-218.239995A296.745994 296.745994 0 0 1 511.99999 895.99698a301.523994 301.523994 0 0 1-225.109996-101.844998H68.649999A68.949999 68.949999 0 0 1 0 725.3309830000001v-784.509984A68.905999 68.905999 0 0 1 68.649999-128h886.739982a68.949999 68.949999 0 0 1 68.649999 68.820999v784.509984a68.265999 68.265999 0 0 1-68.692999 68.820999zM511.91299 833.916981a238.334995 238.334995 0 0 0 111.189998-448.680991H400.979992a240.169995 240.169995 0 0 0-126.292997 210.601996 236.116995 236.116995 0 0 0 237.225995 238.079995z m299.219994-249.129995h27.435v1.664a6.485 6.485 0 0 0 6.869999-6.87v-188.542996a6.485 6.485 0 0 0-6.869999-6.869h-113.919998a305.022994 305.022994 0 0 1 86.570998 200.788996zM299.135994 385.23599h-113.919998a6.485 6.485 0 0 0-6.868999 6.87V579.452986a6.485 6.485 0 0 0 6.869999 6.87h27.434a302.206994 302.206994 0 0 1 86.569998-200.959996zM955.260981-66.22000100000002H68.650999a6.485 6.485 0 0 0-6.87 6.912V725.3309830000001a6.485 6.485 0 0 0 6.87 6.87h177.065996a298.110994 298.110994 0 0 1-28.842999-85.333998h-31.573a68.905999 68.905999 0 0 1-68.607998-68.820999v-188.543996a68.905999 68.905999 0 0 1 68.607998-68.819999h653.394988a68.905999 68.905999 0 0 1 68.649998 68.819999V579.453986a68.949999 68.949999 0 0 1-68.649998 68.820999h-32.938a313.043994 313.043994 0 0 1-28.842999 85.332998h177.065996a6.485 6.485 0 0 0 6.87-6.87v-785.916984h1.365a6.485 6.485 0 0 0-6.87-6.912z"  horiz-adv-x="1024" />
      
      <glyph glyph-name="fenxiao1" unicode="&#59168;" d="M1021.807 187.774h-53.343c-9.906 99.065-93.732 176.793-195.083 176.793-13.716 0-27.434-1.523-40.388-4.572 14.479 14.479 26.672 31.244 37.34 49.533 3.05 0 5.335-0.762 8.384-0.762 67.821 0 122.689 54.867 122.689 122.69s-54.867 122.689-122.69 122.689c-3.048 0-5.334-0.763-8.382-0.763-9.145 16.003-20.576 31.244-32.769 44.961 12.955 3.049 26.672 5.335 41.15 5.335 94.494 0 171.46-76.966 171.46-171.46 0-59.44-29.72-111.258-75.442-142.503 80.014-35.054 137.93-111.258 147.074-201.941zM633.165 320.37c140.977-42.674 243.091-173.746 243.091-328.44h-54.105v4.572c0 162.314-131.834 294.148-294.149 294.148S233.854 158.81600000000003 233.854-3.4980000000000473v-4.573h-44.199c0 144.027 88.398 266.715 214.134 317.773-83.061 39.625-140.215 123.45-140.215 221.753 0 135.644 109.734 245.378 245.378 245.378s245.377-109.734 245.377-245.378c0.001-89.92-48.77-168.411-121.164-211.085zM2.193 187.774c9.144 90.683 67.06 166.887 147.075 201.179-45.723 31.243-75.443 83.063-75.443 142.502 0 94.493 76.966 171.46 171.46 171.46 14.48 0 28.196-2.286 41.15-5.334-12.192-13.716-23.622-28.958-32.768-44.961-2.286 0-5.334 0.762-8.383 0.762-67.821 0-122.689-54.867-122.689-122.689s54.868-122.688 122.69-122.688c3.048 0 5.334 0.762 8.382 0.762 10.67-18.288 22.862-34.292 37.34-49.533-12.954 3.048-26.67 4.572-40.387 4.572-101.351 0-185.176-77.728-195.083-176.793H2.193v0.76zM530.29 297.50800000000004c-169.174 0-306.341-137.168-306.341-306.34h611.92c0 169.934-136.406 306.34-305.58 306.34z"  horiz-adv-x="1024" />
      
      <glyph glyph-name="qq" unicode="&#59169;" d="M512.009 896C229.234 896 0 666.766 0 384.009 0 101.23400000000004 229.234-128 512.009-128s512.009 229.234 512.009 512.009C1024 666.766 794.766 896 512.009 896z m289.256-668.86c-21.738-18.637-49.955 61.347-54.008 49.04-9.879-29.936-14.529-49.936-43.643-82.505-1.55-1.737 33.67-14.473 43.643-41.627 9.543-26.032 28.143-67.285-93.486-80.227-71.376-7.582-122.937 38.022-128.091 37.593-9.524-0.84-5.285 0-15.52 0-8.365 0-8.926-0.617-16.806 0-2.167 0.168-25.884-37.593-131.975-37.593-82.226 0-103.515 51.748-86.988 80.227 16.546 28.46 44.129 36.753 40.244 41.253-19.141 22.186-32.363 45.922-40.244 67.36-1.942 5.341-3.586 10.533-4.874 15.52-2.988 11.447-25.884-67.23-50.46-49.041-24.576 18.17-22.39 64.41-6.48 108.688 16.06 44.614 56.492 87.585 56.94 97.072 1.624 35.296-3.474 41.16 0 50.422 7.75 20.767 17.2 12.793 17.2 23.568 0 135.729 100.862 245.761 225.293 245.761 124.412 0 225.275-110.032 225.275-245.761 0-5.21 13.521 0 19.982-23.568 1.326-4.874 2.26-23.66 0.673-50.422-0.747-12.848 34.268-28.498 52.364-97.072 18.133-68.593 0.018-100.938-9.039-108.688z"  horiz-adv-x="1025" />
      
      <glyph glyph-name="chaping" unicode="&#59170;" d="M983.77855 583.281821A510.292492 510.292492 0 0 1 874.039659 745.983659 510.292492 510.292492 0 0 1 512.00002 895.99851 510.292492 510.292492 0 0 1 149.960381 746.039659 510.235492 510.235492 0 0 1 0.00053 384.00002a510.292492 510.292492 0 0 1 149.959851-362.039639A510.292492 510.292492 0 0 1 512.00002-127.99947a510.235492 510.235492 0 0 1 362.039639 149.959851A510.292492 510.292492 0 0 1 1023.99951 384.00002a508.813493 508.813493 0 0 1-40.22096 199.281801z m-677.317325-9.61499a68.038932 68.038932 0 1 0 0-136.077864 68.038932 68.038932 0 0 0 0 136.077864z m466.203535-466.373535a27.647972 27.647972 0 0 0-38.684961 5.688994c-58.367942 78.505922-152.916848 95.003905-221.979779 95.003905s-163.611837-16.497984-221.979779-95.003905a27.590973 27.590973 0 1 0-44.372956 32.994967 273.634727 273.634727 0 0 0 116.222885 89.485911c44.145956 18.431982 94.662906 27.818972 150.12985 27.818972s105.983894-9.386991 150.18685-27.875972a273.634727 273.634727 0 0 0 116.165885-89.485911c9.102991-12.229988 6.542993-29.581971-5.687995-38.683961z m-55.125945 330.295671a68.038932 68.038932 0 1 0 0 136.077864 68.038932 68.038932 0 0 0 0-136.077864z"  horiz-adv-x="1024" />
      
      <glyph glyph-name="weixin1" unicode="&#59171;" d="M364.032 798.208C165.376 798.208 2.56 665.6 2.56 492.544c0-97.28 53.76-178.176 144.384-242.176L110.08 140.79999999999995l129.024 65.024c40.96-13.312 83.456-19.968 125.952-20.48h-1.024c10.752 0 21.504 0 31.744 1.024-6.656 25.088-10.24 50.688-10.24 76.288 0 156.672 133.632 286.208 306.688 286.208 11.264 0 23.04-1.536 33.792-4.096C696.32 693.76 539.648 798.208 364.032 798.208z m-72.704-199.68c-1.024-24.064-20.992-43.008-45.056-42.496-26.624 0-54.784 16.896-54.784 44.544 0 28.16 28.16 44.544 54.784 44.544h3.584c23.552-1.024 42.496-20.992 41.472-44.544v-2.048z m251.904-2.56c-1.536-23.552-22.016-40.96-45.056-39.424-26.624 0-52.224 16.384-52.224 44.544s25.088 44.032 52.224 44.032h6.656c23.04-1.536 40.448-21.504 38.912-44.544-0.512-1.536-0.512-3.072-0.512-4.608zM364.544 185.856zM1021.44 267.264c0 145.408-145.408 262.144-306.688 262.656-171.008 0-305.664-117.248-305.664-262.144 0-145.408 135.168-262.144 305.664-262.144 36.864 0 72.704 11.776 109.568 18.944l96.768-54.784-25.6 91.648c71.68 51.712 125.952 124.416 125.952 205.824z m-406.016 47.104c-18.432 0.512-33.792 14.848-35.84 33.28 0.512 19.456 15.872 35.84 35.328 36.864h0.512c26.112 0 45.568-16.384 45.568-36.864 0-16.384-18.432-33.28-45.568-33.28z m199.68 0.512c-18.432 0-34.304 14.336-35.84 33.28 0 19.968 15.872 36.352 35.84 36.864 25.6 0 44.544-16.384 44.544-36.864 0-16.896-18.944-33.28-44.544-33.28z"  horiz-adv-x="1024" />
      
      <glyph glyph-name="appyingyongtubiao" unicode="&#59172;" d="M737.088 890.048H286.976c-70.656 0-128-57.344-128-128V6.080000000000041c0-70.656 57.344-128 128-128h450.048c70.656 0 128 57.344 128 128V762.048c0.064 70.656-57.344 128-127.936 128zM514.496-89.66399999999999c-37.568 0-68.096 30.4-68.096 68.032s30.528 68.032 68.096 68.032 68.032-30.4 68.032-68.032-30.464-68.032-68.032-68.032z m280.576 317.696c0-70.656-57.344-128-128-128h-310.08c-70.656 0-128 57.344-128 128v456c0 70.656 57.344 128 128 128h310.08c70.656 0 128-57.344 128-128v-456z"  horiz-adv-x="1024" />
      
      <glyph glyph-name="weixin" unicode="&#59173;" d="M0 384a512 512 0 1 1 1024 0A512 512 0 1 1 0 384zM585.81 384.507c-12.877 0-25.787-12.977-25.787-28.929 0-12.977 12.91-25.921 25.786-25.921 19.331 0 33.153 12.977 33.153 25.921 0 15.952-13.788 28.929-33.153 28.929z m-84.692 134.64c20.277 0 33.153 13.958 33.153 34.911 0 21.934-12.876 34.911-33.153 34.911-19.331 0-37.75-12.977-37.75-34.91 0-20.954 18.419-34.911 37.75-34.911z m-96.655-290.234c-34.066 0-58.905 5.982-91.247 15.951l-92.972-50.693 26.699 85.807C181.65 329.65700000000004 142.954 392.448 142.954 469.3c0 135.654 117.845 239.372 261.475 239.372 127.07 0 240.285-81.785 262.388-197.5a118.69 118.69 0 0 1-24.705 2.94c-125.212 0-221.866-101.724-221.866-224.401a259.042 259.042 0 0 1 7.367-59.852 178.372 178.372 0 0 0-23.015-0.98z m383.916-97.77l18.418-71.815-70.058 42.886c-26.698-5.982-52.484-14.937-79.182-14.937-123.387 0-220.954 91.754-220.954 205.475s97.6 205.476 220.954 205.476c116.932 0 221.866-91.788 221.866-205.476 0-63.839-39.608-120.683-91.247-161.575zM318.826 588.969c-19.331 0-39.575-12.977-39.575-34.91 0-20.954 20.277-34.911 39.575-34.911 18.418 0 33.153 13.957 33.153 34.91 0 21.934-14.735 34.911-33.153 34.911z m411.526-204.462c-13.822 0-25.786-12.977-25.786-28.929a27.036 27.036 0 0 1 25.786-25.921c18.418 0 32.207 12.977 32.207 25.921 0 15.952-13.822 28.929-32.207 28.929z m0 0"  horiz-adv-x="1024" />
      
      <glyph glyph-name="icon363601" unicode="&#59174;" d="M909.938 231.19600000000003c-18.432 110.877-95.83 183.524-95.83 183.524 11.065 100.665-29.496 118.528-29.496 118.528C776.107 844.686 517.432 839.225 512 839.083c-5.433 0.142-264.135 5.603-272.612-305.863 0 0-40.561-17.864-29.496-118.528 0 0-77.398-72.648-95.83-183.524 0 0-9.842-187.335 88.462-22.955 0 0 22.13-62.435 62.664-118.528 0 0-72.505-25.486-66.333-91.761 0 0-2.475-73.9 154.823-68.836 0 0 110.564 8.903 143.758 57.344h29.241c33.167-48.44 143.759-57.344 143.759-57.344 157.24-5.092 154.794 68.836 154.794 68.836 6.116 66.247-66.332 91.761-66.332 91.761 40.533 56.093 62.663 118.528 62.663 118.528 98.19-164.38 88.377 22.983 88.377 22.983z m0 0"  horiz-adv-x="1024" />
      
      <glyph glyph-name="erweima" unicode="&#59175;" d="M399.524 895.596H0.056v-398.664h399.468V895.596zM350.1 546.442H50.432V845.312H350.1v-298.87zM124.82 771.139h150.36v-151.89H124.82z m424.628-474.522h75.279v74.107h74.89V446.78h-75.28v-74.89h-74.89zM25.298 421.821h74.665v-74.67H25.298zM474.558 871.41h75.279v-150.17h-75.28z m249.63-749.927h75.28v-74.5h-75.28z m-249.63 549.166h75.279v-74.475h-75.28z m324.52-273.792h75.28v-74.5h-75.28zM124.82 147.087h150.36v-151.89H124.82z m599.368 99.461H649.58v-74.475h224.256v74.475h-74.368v75.418h-75.28z m199.71 0.528h75.28v-74.501h-75.28z m0-274.57h-49.54v74.086h-75.28v-74.086h-74.941v-76.058h274.96v73.308h0.081V122.26h-75.28z m0 447.759h75.28v-72.945h-75.28z m-174.99 350.874H899.24v-151.89H748.908zM624.532 895.596v-398.664H1024V895.596H624.532z m349.266-349.154H674.125V845.312h299.673v-298.87zM549.837 122.675h74.89v72.92h-74.89V296.473h-75.28v-398.219h74.89v-1.054h75.28v74.5h-74.89zM474.28 546.11h75.556v-74.506H474.28zM175.078 421.821h249.964v-75.53H175.078zM624.338 47.37h75.274v-74.506h-75.274zM0-127.596h399.468V271.063H0v-398.659z m50.37 348.401h299.674v-298.89H50.371v298.89z"  horiz-adv-x="1024" />
      
      <glyph glyph-name="guanzhu" unicode="&#59176;" d="M512-64.1c-5.7 0-11.4 1.5-16.4 4.5-16.5 9.9-403.7 244.4-454.8 501.9C8.2 606 67.9 738.7 204.6 806.1c129.8 64.2 258.6-6.8 307.4-39.7 48.8 33 177.7 103.8 307.4 39.7 136.7-67.5 196.4-200.1 163.8-363.8-51.1-257.5-438.3-492-454.8-501.9-5-3-10.7-4.5-16.4-4.5zM315.5 767.7c-27 0-55-5.3-82.6-18.9-110.3-54.5-156.3-158.9-129.4-294C143.6 252.7 438.6 52.6 512 5.6c73.3 47 368.4 247.3 408.5 449.2 26.8 135.1-19.1 239.5-129.4 294-123.9 61.2-257.5-45.6-258.8-46.7-11.8-9.6-28.8-9.6-40.6 0-1 0.8-82 65.6-176.2 65.6z"  horiz-adv-x="1024" />
      
      <glyph glyph-name="shangpin" unicode="&#59177;" d="M238.656 614.464c18.56 0 33.408 14.08 33.408 35.2 0 109.12 104 176 208 176 100.288 0 211.712-73.92 211.712-176 0-21.12 14.848-35.2 33.408-35.2 18.56 0 33.408 14.08 33.408 35.2C758.592 793.92 610.048 896 480.064 896 346.24 896 201.472 804.48 201.472 649.664c3.712-17.6 18.56-35.2 37.12-35.2z m705.664-105.6a106.88 106.88 0 0 1-78.016 35.2h-765.12c-29.696 0-59.392-10.496-77.952-35.2C4.672 487.808-2.816 459.648 0.96 431.488L82.624-25.92C93.76-82.24 149.504-128 208.896-128h549.76c59.392 0 115.072 42.24 126.208 102.08l81.728 457.408c3.712 28.16-3.712 56.32-22.272 77.44zM242.368 297.856c-29.76 0-55.68 24.64-55.68 52.8 0 28.16 25.92 52.736 55.68 52.736 29.696 0 55.68-24.576 55.68-52.736 0-28.16-25.984-52.8-55.68-52.8z m482.816 0c-29.696 0-55.68 24.64-55.68 52.8 0 28.16 25.984 52.736 55.68 52.736 29.696 0 55.68-24.576 55.68-52.736 0-28.16-25.984-52.8-55.68-52.8z"  horiz-adv-x="1024" />
      
      <glyph glyph-name="aixin" unicode="&#59178;" d="M1010.652 530.917c0 167.478-130.429 303.795-290.509 303.795-79.075 0-153.913-34.382-207.944-93.029-54.104 58.647-129.015 93.029-207.942 93.029-160.157 0-290.513-136.241-290.513-303.795 0-5.614 0.523-10.633 0.966-14.753-0.076-1.348-0.148-2.698-0.148-4.12 0-29.662 7.134-62.245 21.184-96.84 0.444-1.28 0.892-2.475 1.413-3.601 88.507-213.987 429.259-460.174 443.754-471.487 8.991-6.958 19.691-10.404 30.469-10.404 10.925 0 21.699 3.592 30.763 10.703 12.414 9.736 303.072 220.58 418.419 420.031 4.382 6.746 7.652 13.261 10.55 18.877 0.89 1.799 1.707 3.596 2.678 5.32l0.367 0.824c0.375 0.674 0.821 1.424 1.264 2.024 6.911 13.547 12.411 26.134 16.797 38.418 11.969 31.61 17.835 59.766 17.835 86.059 0 2.026-0.073 3.823-0.223 5.318 0.371 3.45 0.82 8.091 0.82 13.631z"  horiz-adv-x="1024" />
      
      </font>
</defs>
</svg>
